<?xml version="1.0" standalone="no"?>
<!DOCTYPE svg PUBLIC "-//W3C//DTD SVG 1.1//EN" "http://www.w3.org/Graphics/SVG/1.1/DTD/svg11.dtd" >
<svg>
<metadata>
Created by FontForge 20120731 at Thu Jul 28 13:37:09 2016
 By ,,,
More Services
</metadata>
<defs>
<font id="KrutiDev010" horiz-adv-x="492" >
  <font-face 
    font-family="Kruti Dev 010"
    font-weight="400"
    font-stretch="normal"
    units-per-em="1000"
    panose-1="0 0 0 0 0 0 0 0 0 0"
    ascent="800"
    descent="-200"
    x-height="213"
    cap-height="516"
    bbox="-526 -248 826 801"
    underline-thickness="20"
    underline-position="-123"
    unicode-range="U+0020-2122"
  />
<missing-glyph horiz-adv-x="801" 
d="M50 0v801h701v-801h-701zM701 50v701h-601v-701h601z" />
    <glyph glyph-name=".notdef" horiz-adv-x="801" 
d="M50 0v801h701v-801h-701zM701 50v701h-601v-701h601z" />
    <glyph glyph-name=".null" horiz-adv-x="0" 
 />
    <glyph glyph-name="nonmarkingreturn" horiz-adv-x="379" 
 />
    <glyph glyph-name="space" unicode=" " horiz-adv-x="379" 
 />
    <glyph glyph-name="exclam" unicode="!" horiz-adv-x="300" 
d="M215 176h-45l-8 494h61zM164 0v61h63v-61h-63z" />
    <glyph glyph-name="quotedbl" unicode="&#x22;" horiz-adv-x="229" 
d="M230 146q-58 0 -104 35t-46 95v199h-80v41h234v-41h-93l183 -190v-101q-33 -38 -94 -38zM133 434v-159q0 -42 26 -62q3 -3 12 -7.5t18 -9.5q17 -6 35 -6l27 3l27 9l23 15l17 20z" />
    <glyph glyph-name="numbersign" unicode="#" horiz-adv-x="541" 
d="M289 475v-125l28 15l34 12l32 5q47 0 82 -36.5t35 -80.5q0 -29 -11.5 -59.5t-30.5 -55.5l-18 -23l-24 -26l-37 34l20 19l15 17q10 12 26 48q9 23 9 50q0 34 -20 54q-22 17 -52 17q-32 0 -49 -9q-13 -3 -22 -11l-19 -16l-2 -6l-1 -5l-2 -5l-2 -3q-6 -11 -19 -18l-27 -12
l-13 -3l-15 -1l-14 -2h-10l6 -12l19 -28l24 -36l23 -30l27 -34l76 -85l-43 -28l-26 27l-35 42l-46 57l-43 61l-49 72l-35 59l-10 19l-9 20l43 22l37 -64l8 -9l14 -8l16 -6l16 -2q21 0 37 22l3 15l1 26v126h-236v41h549v-41h-260z" />
    <glyph glyph-name="dollar" unicode="$" horiz-adv-x="553" 
d="M293 234v-234h-43v234h-236v43h236v239h43v-239h238v-43h-238z" />
    <glyph glyph-name="percent" unicode="%" horiz-adv-x="168" 
d="M51 367v67h70v-67h-70zM51 80v68h70v-68h-70z" />
    <glyph glyph-name="ampersand" unicode="&#x26;" horiz-adv-x="553" 
d="M14 234v43h513v-43h-513z" />
    <glyph glyph-name="quotesingle" unicode="'" horiz-adv-x="371" 
d="M297 475q14 -13 21 -27l16 -29l9 -31l4 -32q0 -54 -32 -102.5t-80 -68.5q-34 -14 -71 -14l166 -138l-35 -35l-240 203l35 35l33 -27l6 -2h6l26 1q29 3 56 18l31 21l24 25l16 27l5 21l2 29l-15 -13l-12 -9q-15 -12 -34 -18l-31 -5q-48 0 -80 31q-17 15 -26.5 34.5
t-9.5 40.5q0 32 28 64l-115 1v41h371v-41h-74zM280 422q-3 10 -8 16q-24 38 -67 38q-18 0 -27 -5q-22 -6 -33 -33l-4 -23q0 -30 19 -49t49 -19q32 0 61 27l8 11l11 16z" />
    <glyph glyph-name="parenleft" unicode="(" horiz-adv-x="180" 
d="M82 264v58h64v-58h-64zM78 -94h-45l45 151h67z" />
    <glyph glyph-name="parenright" unicode=")" horiz-adv-x="625" 
d="M523 475v-137h-195q-15 0 -27 -4t-23 -13q-7 -5 -14 -23l-4 -31q0 -78 89 -114q14 -4 26.5 -6t28.5 -2l11 1l15 2l12 2l5 1l-1 9q0 10 5 18q15 55 55 55l19 -3q7 -3 14 -10l8 -16q3 -8 3 -19q0 -41 -33 -64l-21 -5l4 -18l3 -12l7 -29l8 -25l43 -114h-55l-27 86
q-3 -11 -20 -19l-43 -21l-42 -12q-18 -5 -42 -5q-66 0 -102 52l-10 20l-9 31l-51 4l-35 7q-39 7 -65 38q-21 24 -21 64q0 32 21 65q9 12 24.5 18.5t34.5 8.5q18 0 29.5 -3.5t24.5 -14.5l14 -16l6 -5l-27 -25l-8 6l-5 5l-16 9l-16 3l-17 -3l-11 -8l-7 -14l-4 -16
q0 -24 16.5 -43.5t46.5 -28.5l50 -14l9 -1h4q6 0 11 3l3 6l3 5l7 11l8 10l8 7l11 8l10 6l8 3l-21 17l-13 16q-23 28 -32 64l-2 25q0 55 28.5 82t71.5 27l162 1v98h-471v41h629v-41h-106zM455 111l-7 -2l-16 -1l-17 -2h-11l-21 1l-36 7l-15 4l-22 -7l-15 -6q-37 -20 -37 -55
q0 -25 22 -46l25 -11l31 -5q14 0 30.5 4.5t29.5 8.5t22 10l37 21l16 14z" />
    <glyph glyph-name="asterisk" unicode="*" horiz-adv-x="203" 
d="M94 449h-43l43 143h58z" />
    <glyph glyph-name="plus" unicode="+" horiz-adv-x="2" 
d="M-258 -113v56h59v-56h-59z" />
    <glyph glyph-name="comma" unicode="," horiz-adv-x="445" 
d="M379 475v-188q0 -30 -21 -51q-9 -11 -23 -19l-26 -11l-38 30q20 0 38 19l12 21l5 22v177h-189v-246l240 -229l9 -18l3 -21q0 -34 -38 -56l-16 -4l-22 -6l-45 44l7 -2l16 -1l6 1h6l5 2l6 1l9 4l9 7l1 3l2 3l2 8q0 15 -15 27l-3 3l-5 3l-232 219v258h-82v41h447v-41h-68z
" />
    <glyph glyph-name="hyphen" unicode="-" horiz-adv-x="168" 
d="M51 0v66h70v-66h-70z" />
    <glyph glyph-name="period" unicode="." horiz-adv-x="361" 
d="M330 475v-174q0 -32 -8 -52q-18 -51 -61 -66q-24 -8 -50 -8q-32 0 -49 8q-47 21 -67 66q-9 21 -9 47v179h-86v41h369v-41h-39zM277 475h-138v-178q0 -35 17 -58q18 -27 51 -27q36 0 55 28q5 7 11 26l4 34v175z" />
    <glyph glyph-name="slash" unicode="/" horiz-adv-x="273" 
d="M248 475v41h30v-41h-30zM341 158l-36 -25q-58 -40 -131 -40q-47 0 -88 30.5t-41 76.5q0 33 25 65l10 10l16 13q-31 15 -61 52l-20 36q-5 19 -7 37q0 45 28 73t73 28q62 0 85 -48q5 -13 7 -30v-30h-45v31q0 40 -45 40q-21 0 -37 -19l-10 -20l-3 -23q0 -38 21 -65
q8 -11 14 -17t15.5 -13.5t23.5 -9.5l34 10l39 4l18 -1l20 -2l22 -38l-67 -3q-29 0 -39 -5q-62 -14 -62 -73q0 -43 53 -64l31 -4q60 0 123 47l22 20l26 28v-53q0 -8 -14 -18z" />
    <glyph glyph-name="zero" unicode="0" horiz-adv-x="389" 
d="M33 325q4 25 6.5 38t7.5 26l10 25l13 22l14 20l17 17q40 29 91 29q28 0 39 -5q17 0 33 -11q17 -8 27 -20l23 -27l17 -37l14 -40l8 -50l3 -77q0 -20 -1 -38.5t-4 -34.5q-15 -92 -66 -140q-32 -30 -93 -30q-117 0 -150 131q-13 55 -13 123v35zM120 84q12 -19 32.5 -31
t39.5 -12q20 0 38 9.5t33 31.5q30 42 30 164q0 63 -8 102q-12 66 -54 93q-20 10 -39 10q-42 0 -66 -33.5t-32 -112.5l-2 -59q0 -122 28 -162z" />
    <glyph glyph-name="one" unicode="1" horiz-adv-x="389" 
d="M199 0v392q-12 -13 -25 -22l-50 -32l-16 -8l-16 -7l-16 -6v60q19 7 47 24l41 33q16 13 34 34l23 34l40 1v-503h-62z" />
    <glyph glyph-name="two" unicode="2" horiz-adv-x="389" 
d="M352 0h-331q0 16 2 21l6 21q8 28 40 66l15 18l17 17l48 41l66 58l43 46q20 26 28 57l2 19q0 34 -24.5 60.5t-69.5 26.5q-69 0 -91 -59q-7 -21 -7 -42l-63 8q6 68 47.5 106t114.5 38q69 0 112.5 -39t43.5 -100l-1 -17l-1 -13q0 -6 -4 -13l-5 -14l-8 -16l-10 -16l-12 -17
l-12 -14l-40 -41l-54 -48l-46 -38l-26 -25l-26 -32h246v-59z" />
    <glyph glyph-name="three" unicode="3" horiz-adv-x="389" 
d="M91 141q5 -31 16 -51q11 -26 48 -44l34 -5q43 0 73 30t30 74q0 21 -8 40q-6 21 -19 30l-16 12l-16 9l-18 5l-21 2q-15 0 -21 -2l-23 -5l7 55l10 -1h19l18 4q44 17 57 43q8 16 8 36q0 14 -6 31q-12 47 -75 47q-39 0 -61 -22q-20 -17 -30 -67l-61 11q9 60 50 94.5t100 34.5
q26 0 39 -5q36 -3 66 -32q5 -5 13.5 -16.5t15.5 -22.5l12 -37l1 -17q0 -18 -5 -31q-5 -24 -35 -52l-29 -18q26 -6 39 -17q55 -29 55 -107q0 -65 -47.5 -110.5t-121.5 -45.5q-83 0 -128 58q-26 33 -32 82z" />
    <glyph glyph-name="four" unicode="4" horiz-adv-x="389" 
d="M226 120h-217v56l228 325h51v-325h68v-56h-68v-120h-62v120zM226 402l-157 -226h157v226z" />
    <glyph glyph-name="five" unicode="5" horiz-adv-x="389" 
d="M94 136q9 -71 62 -89q15 -6 34 -6q37 0 75 33q31 37 31 89q0 29 -8 46q-9 30 -38 49t-61 19h-12q-24 0 -42 -14l-11 -8l-10 -7l-9 -9l-7 -10l-58 8l48 257h249v-59h-199l-27 -134l22 12l23 10l23 6l26 2q19 0 32.5 -2t33.5 -10q53 -22 79 -84q11 -31 11 -66
q0 -69 -40 -118q-48 -59 -131 -59q-68 0 -110.5 36.5t-50.5 102.5z" />
    <glyph glyph-name="six" unicode="6" horiz-adv-x="389" 
d="M287 374l-7 23l-7 15l-9 13q-11 11 -24 16.5t-20 7.5t-18 2q-45 0 -78 -42l-7 -12l-12 -24l-8 -23l-5 -27l-4 -32l-1 -34q21 34 53 50l34 12l35 5q45 0 82 -27t55 -72q5 -13 8 -29.5t3 -34.5q0 -11 -1 -22.5t-4 -23.5q-9 -44 -40 -77l-31 -26q-38 -20 -81 -20
q-75 0 -125 54q-36 41 -45 125l-3 62q0 146 53 212q45 57 126 57q30 0 57 -9q56 -20 78 -80l8 -35zM98 144l2 -14l4 -15l7 -15l15 -24l21 -19l25 -12l27 -4q76 0 93 90l2 27q0 54 -27.5 83t-69.5 29q-24 0 -39 -8q-45 -18 -59 -78l-2 -23z" />
    <glyph glyph-name="seven" unicode="7" horiz-adv-x="389" 
d="M33 495h325v-48l-24 -28l-23 -31l-24 -36l-24 -42l-24 -44l-19 -42l-8 -21l-8 -20l-7 -21l-17 -60l-7 -35l-5 -34l-1 -33h-64q0 16 1 31.5t4 30.5l7 38q9 54 37 122q20 50 38 81l21 37l21 34l22 32l25 28l-246 1v60z" />
    <glyph glyph-name="eight" unicode="8" horiz-adv-x="389" 
d="M67 311q-10 13 -15 29l-4 33q0 20 2 26l7 23l12 22l18 21q42 37 105 37q67 0 106.5 -37.5t39.5 -93.5q0 -22 -5 -32q-3 -20 -21 -38t-48 -30q25 -6 40 -20q32 -20 47 -64q3 -12 5 -22t2 -23q0 -19 -2 -32t-9 -29q-24 -57 -86 -78q-15 -5 -32.5 -8t-35.5 -3q-77 0 -117 41
q-19 19 -35 51q-12 30 -12 60l1 24q0 13 4 21l3 9l5 10l5 9l6 9q18 27 71 45q-38 11 -57 40zM116 342q15 -33 42 -42q18 -6 36 -6q35 0 58 23l17 24q6 14 6 30q0 30 -24 57l-28 17q-12 6 -30 6q-35 0 -59 -23q-17 -17 -23 -53q0 -20 5 -33zM95 118l9 -25l15 -23l21 -16
l25 -10l29 -3q45 0 73 29t28 72q0 24 -8 40q-12 36 -56 55q-21 7 -39 7q-24 0 -40 -8q-36 -12 -53 -54q-7 -23 -7 -38z" />
    <glyph glyph-name="nine" unicode="9" horiz-adv-x="389" 
d="M97 121q3 -22 11 -38q9 -23 41 -38l32 -4l27 3q13 3 23 11l19 15q9 6 15 18l6 11l6 14l5 15l6 19l7 37l2 38v14q-25 -43 -84 -63l-36 -4q-61 0 -105 43q-21 22 -32 51.5t-11 69.5t11 68q18 45 58 73t89 28q16 0 24 -2q10 0 21 -5l22 -7l22 -12q15 -9 35 -32
q32 -39 42 -103q5 -40 5 -81v-12q0 -78 -19.5 -136.5t-60.5 -89t-99 -30.5q-35 0 -54 8q-25 6 -42 23q-33 27 -45 92zM232 443q-9 4 -17.5 6t-20.5 2q-21 0 -40 -8q-33 -15 -55 -65q-3 -13 -5 -23.5t-2 -23.5q0 -48 28 -77q12 -14 34 -23q14 -5 21 -6.5t17 -1.5q70 0 91 67
q3 12 5 22.5t2 23.5q0 80 -58 107z" />
    <glyph glyph-name="colon" unicode=":" horiz-adv-x="637" 
d="M299 475v-125h121l28 11l28 4q81 0 118 -100q10 -33 10 -57q0 -88 -38 -155l-8 -14l-11 -15l-43 27l17 24l12 21q21 35 28 83l2 27q0 42 -24 74.5t-64 32.5q-19 0 -27 -5q-20 -3 -32 -31l-4 -24q0 -35 22 -56l9 -8l14 -8l-27 -40q-26 12 -44 43q-8 15 -13 33l-4 35l3 28
l9 26l-92 1l-2 -8l-2 -5q-9 -23 -53 -41l-11 -2l-15 -1h-15l-5 -1h-4l6 -12l19 -28l24 -36l23 -30l27 -34l76 -85l-43 -28l-26 27l-35 42l-46 57l-43 61l-49 72l-35 59l-10 19l-9 20l43 22l37 -64q14 -17 50 -23q24 0 39 15q8 8 12 19l4 27v126h-246v41h635v-41h-336z" />
    <glyph glyph-name="semicolon" unicode=";" horiz-adv-x="504" 
d="M434 475v-475h-53v154q-53 -45 -122 -45q-79 0 -132 49q-59 54 -59 136l8 -3l9 -3q7 0 9 -2h10q35 0 62 21q25 22 25 65q0 27 -25 70l-25 32l-141 1v41h506v-41h-72zM381 475h-176l12 -20l8 -15l16 -39l5 -31q0 -66 -58 -102l-25 -10l-34 -9l3 -10l4 -8l3 -8l3 -6
q36 -72 110 -72q42 0 75 23q17 11 32 27l22 31v249z" />
    <glyph glyph-name="less" unicode="&#x3c;" 
d="M385 475v-151h-180q-14 0 -20 -1.5t-17 -6.5q-31 -15 -44 -46q-7 -18 -7 -37q0 -96 84 -146l35 -16l49 -13l-7 7l-5 6l-20 36q-7 26 -7 42q0 45 27.5 69t69.5 24q36 0 65 -19.5t37 -54.5l2 -23q0 -56 -46 -92q-21 -15 -50 -26q-18 -3 -31 -5t-25 -2q-87 0 -155 59
q-39 33 -57.5 68.5t-18.5 83.5q0 55 37 92t94 37l137 1v114h-332v41h512v-41h-127zM324 200q-10 -3 -18 -13l-11 -19l-4 -23q0 -43 22 -66l9 -8l14 -8q39 0 55 50l5 32l-3 23l-9 19q-12 17 -35 17q-16 0 -25 -4z" />
    <glyph glyph-name="equal" unicode="=" horiz-adv-x="524" 
d="M463 475v-475l-52 1v186l-239 -142l-31 45l248 129l-57 55q-59 57 -83 57q-37 0 -96 -31l-67 -35l-31 40l31 17l87 36l50 18q17 6 31 6q29 0 86 -57l28 -29l43 -46v225h-413v41h537v-41h-72z" />
    <glyph glyph-name="greater" unicode="&#x3e;" horiz-adv-x="588" 
d="M518 475v-475h-53v207h-107l-1 -29q0 -51 -39 -85q-25 -22 -47.5 -32.5t-43.5 -10.5l46 -29l53 -23l-31 -39l-78 48l-18 13l-16 13l-9 9l-24 1h-34q-29 0 -46 23q-4 8 -7 27l3 15l9 15l13 9l16 4l15 -1q6 0 15 -6l14 -8l15 -11l10 -11l13 -16l34 7q19 3 25 8q60 27 60 87
q0 13 -2 15l-6 10l-9 6l-12 2l-17 -2l-46 -12l-14 -2l-22 3q-10 3 -22 9.5t-23 16.5l-22 23q-44 46 -44 89q0 23 21 38l14 5l18 2l149 1v86h-268v41h600v-41h-82zM465 475h-145v-127h-191l-7 -5l-2 -5l1 -10l5 -11l10 -17l18 -22l12 -13l13 -8l13 -4l17 -1l16 1q16 0 27 4
l26 4l17 2q13 0 22 -4l25 -13l4 -4l7 -5l112 1v237z" />
    <glyph glyph-name="question" unicode="?" horiz-adv-x="324" 
d="M384 144l-25 -13q-62 -32 -117 -32q-10 0 -21.5 0.5t-29.5 7.5q-55 18 -79 60q-10 23 -10 45q0 41 28 69l11 11l17 14l-24 10l-16 10q-40 25 -40 73l2 20l7 23l10 20l10 12l-107 1v41h326v-41h-156l-12 -11l-8 -8l-16 -26l-5 -27q0 -28 26 -50l22 -14l24 -4l86 1l18 -37
h-55q-15 0 -32 -7q-64 -20 -64 -80q0 -33 28 -52l31 -16l37 -4q20 0 37 4t41 16l32 16l40 25q12 9 16 17v-54z" />
    <glyph glyph-name="at" unicode="@" horiz-adv-x="781" 
d="M153 -145l-27 34l500 720l35 -25z" />
    <glyph glyph-name="A" unicode="A" horiz-adv-x="396" 
d="M291 -53v584h53v-584h-53z" />
    <glyph glyph-name="B" unicode="B" 
d="M387 475v-149h-188q-21 0 -33 -8q-25 -12 -42 -51q-5 -18 -5 -36q0 -97 98 -147q28 -11 54 -11q50 0 87.5 30.5t37.5 77.5q0 31 -21 63l-9 10l-12 13l35 34q6 0 18 -12l22 -32q9 -18 17 -55l1 -21q0 -63 -49 -105t-127 -42q-80 0 -142.5 58t-62.5 141q0 63 40.5 99
t100.5 36l129 1v106h-336v41h494v-41h-107z" />
    <glyph glyph-name="C" unicode="C" horiz-adv-x="230" 
d="M0 475v41h250v-41h-250zM297 130l-26 -13q-12 -6 -28 -9l-29 -2q-30 0 -54.5 8.5t-49 30t-36.5 46.5q-10 27 -10 58q0 57 42 99q20 20 46 32q14 6 27 8t26 2l23 -2l25 -4l5 -2l8 -2l7 -44q-4 6 -19 10l-26 4q-17 0 -23 -2l-22 -6l-20 -9l-15 -12l166 -114l6 14v-69
q-9 -12 -23 -22zM127 297l-4 -10l-2 -7l-5 -18l-1 -13q0 -24 6.5 -41.5t22.5 -31.5q14 -15 33 -24q23 -7 38 -7h16l11 4q8 2 13 4.5t14 9.5l10 7l12 11z" />
    <glyph glyph-name="D" unicode="D" horiz-adv-x="420" 
d="M489 335l-9 1l-17 -2l-26 -6q-50 -12 -74 -79q-6 -18 -6 -35v-214h-52v148q-37 -37 -93 -37q-60 0 -102 39t-42 99q0 53 42 95q29 27 71 38l27 3l27 -3l25 -8v-42l-23 8l-22 3q-36 0 -60 -24t-32 -68q0 -42 25 -71q11 -14 29 -23q9 -4 16 -6t18 -2q36 0 73 37
q21 21 21 40v249h-305v41h422v-41h-65v-151l24 20l22 16l14 7l14 6l13 3l14 1q18 0 32 -7l5 -36z" />
    <glyph glyph-name="E" unicode="E" horiz-adv-x="275" 
d="M178 254v-76l-1 -7v-4l-5 -7l-16 -2q-10 0 -24 11l-34 36l-29 39l-10 27l3 11q4 5 11 9l5 2l10 3l39 1v178h-127v41h283v-41h-105v-178h176v-43h-176z" />
    <glyph glyph-name="F" unicode="F" horiz-adv-x="336" 
d="M394 163l-23 -17l-33 -19l-32 -13l-33 -9l-33 -2q-26 0 -47.5 4.5t-45.5 17.5q-42 21 -79 64q-5 6 -10 13q-8 11 -14 22l-26 52l38 -14l44 -4q56 0 98 29t42 87q0 36 -26.5 67.5t-67.5 31.5q-28 0 -45 -14q-10 -8 -15 -20l-4 -22q0 -29 32 -44l13 -4l19 -3v-42h-13
q-60 0 -88 41q-14 20 -14 54q0 63 74 88q12 3 21 5t20 2q31 0 56 -11q53 -18 79 -75q10 -28 10 -54q0 -107 -108 -140q-37 -10 -78 -10l-11 1q6 -15 21 -30l35 -26q44 -25 86 -25q81 0 138 61l23 25l25 37v-78z" />
    <glyph glyph-name="G" unicode="G" horiz-adv-x="588" 
d="M457 475v-104l16 -9l13 -7q27 -15 48 -57q17 -37 17 -80q0 -32 -9 -64q-15 -51 -64 -82q-24 -12 -56 -12q-42 0 -72 22t-47 63q-12 -42 -43 -66.5t-74 -24.5q-90 0 -120 96q-8 27 -8 59q0 12 0.5 26.5t7.5 32.5q22 65 67 89q25 11 56 11q44 0 70 -21q27 -15 46 -59l19 30
l11 16l9 8q23 20 60 28v105h-404v41h586v-41h-129zM490 259q-3 22 -11 34q-18 36 -61 36q-45 0 -78 -70l-8 -20l-2 -23v-14l6 -24q20 -79 88 -79q39 0 57 38q6 15 9 34l4 45v28zM274 248q-12 41 -42 65q-20 14 -44 14q-48 0 -72 -69q-4 -20 -4.5 -29t-0.5 -15v-31l4 -18
q9 -44 39 -61q15 -9 34 -9q47 0 77 60l9 25l9 36z" />
    <glyph glyph-name="H" unicode="H" horiz-adv-x="275" 
d="M246 475v41h39v-41h-39zM201 250v-91l-1 -6l-8 -7l-10 -2q-9 0 -26 13q-24 17 -44 40l-38 45q-10 15 -13 27l3 8l8 8l9 5l7 2l60 1v140q0 18 -13 31t-32 13q-9 0 -20 -4l-17 -9l-11 -16l-4 -21l1 -14l5 -15l2 -7l5 -9l-50 1l-4 7l-1 6l-4 14l-1 13q0 44 29.5 68.5
t71.5 24.5q66 0 89 -51q7 -21 7 -37v-135h164v-43h-164z" />
    <glyph glyph-name="I" unicode="I" horiz-adv-x="215" 
d="M292 205l-25 -14l-14 -5l-12 -3l-14 -3h-13q-54 0 -95 38t-41 99v158h-78v41h221v-41h-92v-166q0 -43 29 -69q12 -11 28 -19l29 -5q56 0 92 63l7 23v-77z" />
    <glyph glyph-name="J" unicode="J" horiz-adv-x="576" 
d="M506 475v-475h-55v248l-256 -197l-31 43l186 133l-71 37l-21 8l-33 17l-14 9l-72 -50l-80 -53l-34 39l79 47q10 3 19 11l22 14l10 7l13 10l-21 12l-13 11q-12 11 -26 34q-8 19 -8 41q0 42 30.5 67.5t72.5 25.5q37 0 70.5 -24.5t33.5 -68.5q0 -14 -1.5 -20t-7.5 -18
t-21 -29l-13 -11l-17 -14l41 -24l68 -37l32 -13l63 46v174h-107v41h234v-41h-72zM250 440q-3 9 -13 19l-19 12l-21 4q-19 0 -36 -14l-11 -17l-4 -23q0 -28 28 -52l18 -12l13 -4l14 7q6 3 10 8q25 19 25 49q0 14 -4 23z" />
    <glyph glyph-name="K" unicode="K" horiz-adv-x="588" 
d="M518 475v-475h-53v350h-319q-13 0 -14 -13l2 -13l7 -14l10 -17l7 -9l15 -18l13 -12l17 -10l20 -3l20 2l27 9l26 8l22 3q26 0 46 -24q12 -19 17 -56q0 -11 -1.5 -22t-10.5 -30t-30 -37q-7 -6 -22 -16q-22 -15 -29 -19q-25 -11 -46 -11l100 -75l-41 -32l-102 98h-45
q-45 0 -69 31q-4 8 -7 25l3 14l9 13l13 9l16 3q11 0 22 -7l28 -18l19 -18l7 -10l40 9l28 9q69 30 69 84l-3 13q-1 6 -7 10l-10 6l-13 2l-17 -2l-48 -12l-15 -2q-47 0 -95 52q-22 25 -35 49q-11 24 -11 48q0 17 15 32l17 8l21 3l334 1v84h-465v41h590v-41h-72z" />
    <glyph glyph-name="L" unicode="L" horiz-adv-x="371" 
d="M324 260l-35 41h176v-41h-141zM277 475v-167l-2 -10l-6 -22q-6 -21 -33 -33l-21 -6q-9 0 -12 -2l-10 -1l-11 1q-6 0 -14 4l62 -94l27 -35l48 -55l21 -21l-41 -34q-18 6 -48 51l-122 177l-28 46l-18 31l-18 32l43 28l29 -56q18 -35 59 -35l22 3q9 3 13 10l7 15l2 21l-1 15
v137h-235v41h395v-41h-108z" />
    <glyph glyph-name="M" unicode="M" horiz-adv-x="527" 
d="M451 475v-131h-213l-6 -8l-1 -7l1 -11q2 -9 5 -12l8 -16l15 -21l15 -18l15 -12l15 -9l15 -2h6l4 1l69 20l25 6l17 2q22 0 40 -27l8 -25l3 -28q0 -21 -2 -35.5t-9 -32.5q-21 -60 -82 -82q-30 -10 -61 -10q-72 0 -146 58q-62 47 -106 108l-31 42l-10 20l39 38q2 -9 10 -22
q3 -8 27 -40q14 -21 23 -33l24 -27l49 -47q21 -19 64 -41q30 -15 57 -15q44 0 74 31q15 16 22 36t7 50q0 33 -26 33q-9 0 -23 -5q-19 -3 -39 -13l-21 -7l-14 -2q-48 0 -96 61.5t-48 100.5l3 19q3 9 11 13l17 7l22 2l173 1v90h-400v41h535v-41h-84z" />
    <glyph glyph-name="N" unicode="N" horiz-adv-x="588" 
d="M463 475v-86l20 -11l21 -9q39 -30 39 -85q0 -29 -5 -52t-18 -49q-45 -91 -160 -134q-52 -19 -102 -19q-69 0 -111 38.5t-42 104.5q0 67 53 111l-15 6l-12 6l-11 5l-8 6q-46 35 -46 81q0 21 2 27l9 25l13 19q6 9 15 15l-105 1v41h590v-41h-127zM491 307q-5 42 -52 42
q-23 0 -41 -21l-10 -22l-3 -26q0 -16 1 -24t7 -26t20 -39l11 -16l17 -18l6 5l12 15q11 14 28 57q3 11 5 22.5t2 27.5zM412 475h-242q-17 0 -37 -39l-12 -24l-4 -20q0 -30 33 -59q21 -14 43 -18l18 -2h11l13 1h6l7 1h6l6 2l19 -38l-3 -1l-4 1h-11q-42 0 -74.5 -30t-32.5 -72
q0 -43 32 -78q37 -32 78 -32q54 0 99 30l19 13l24 18l-25 30l-22 40l-16 44l-5 42q0 50 36 82l18 10l20 10v89z" />
    <glyph glyph-name="O" unicode="O" horiz-adv-x="229" 
d="M0 475v41h232v-41h-232zM299 139l-22 -15l-31 -11l-31 -3q-59 0 -104 39q-24 21 -36 45q-5 11 -8 24.5t-3 30.5q0 58 39.5 101.5t95.5 43.5l18 -1l20 -3l17 -4q10 0 14 -2l11 -52l-11 6l-9 4l-27 8l-27 3q-22 0 -37 -7q-25 -9 -43 -52q-5 -18 -5 -36q0 -71 53 -98
q25 -7 40 -7h11l19 4q17 3 30 14q33 15 49 43v-58z" />
    <glyph glyph-name="P" unicode="P" horiz-adv-x="324" 
d="M0 475v41h330v-41h-330zM404 180l-35 -29q-39 -32 -86 -42l-29 -3q-50 0 -83 29q-15 13 -24.5 34.5t-9.5 46.5q0 53 50 103q11 11 26 20l-164 1v41h305v-41h-67l-29 -20l-20 -16q-49 -40 -49 -86q0 -50 39 -67l28 -4q63 0 117 70l35 46q12 15 12 27v-89q-3 -8 -16 -21z
" />
    <glyph glyph-name="Q" unicode="Q" horiz-adv-x="625" 
d="M352 475v-149l10 9l21 15q31 22 60 22q38 0 72.5 -20t50.5 -56q10 -27 10 -49q0 -61 -49 -129l-18 -20l-34 -35l-43 35l26 19l19 18q46 52 46 116q0 31 -18 55q-22 25 -60 25q-18 0 -33 -11q-21 -13 -34 -34l-12 -19l-14 -26v-241h-53v199q-9 -12 -22 -18l-23 -11l-25 -7
l-25 -2q-18 0 -26.5 1.5t-25.5 7.5q-50 21 -70 69q-4 10 -7 24.5t-3 28.5v183h-72v41h631v-41h-279zM299 475h-176v-190q0 -45 23 -68q5 -5 21 -13l32 -4q42 0 71 28q23 23 29 50v197z" />
    <glyph glyph-name="R" unicode="R" horiz-adv-x="275" 
d="M0 475v41h277v-41h-277zM168 322q-19 0 -29 -5q-32 -6 -32 -50q0 -35 19 -78.5t50 -80.5l47 -53q15 -14 25 -17l-35 -32l-46 41l-32 35l-33 45q-45 69 -45 132q0 39 21 70t63 31l226 1v-39h-199z" />
    <glyph glyph-name="S" unicode="S" horiz-adv-x="6" 
d="M-95 516l-172 226l47 26l160 -252h-35zM-181 516l-197 132l37 41l185 -173h-25z" />
    <glyph glyph-name="T" unicode="T" horiz-adv-x="408" 
d="M0 475v41h408v-41h-408zM355 318l13 -16l18 -33l10 -28l4 -21q0 -50 -27 -85q-34 -40 -90 -40q-66 0 -125 66q-8 9 -20 25q-8 11 -21 30q-16 28 -34 69l-20 49l-4 19l43 34q-3 -3 -3 -9q0 -10 9 -30l40 -88q57 -126 139 -126q42 0 57 48l6 34q0 26 -22 66q-17 34 -42 59
l-15 15l227 1v-39h-143z" />
    <glyph glyph-name="U" unicode="U" horiz-adv-x="264" 
d="M0 475v41h268v-41h-268zM184 301v-88l-1 -5v-5q0 -6 -6 -9l-15 -2l-6 3q-10 5 -16 9l-37 37l-19 22q-9 12 -25 45q0 17 16 29l9 3l12 1l261 1v-41h-173z" />
    <glyph glyph-name="V" unicode="V" 
d="M395 475v-155h-178q-14 0 -20 -1.5t-17 -6.5q-29 -13 -47 -49q-6 -12 -6 -34q0 -59 48 -110.5t116 -51.5q64 0 108 44l27 34l43 -24q-20 -33 -51 -56q-54 -39 -119 -39q-91 0 -158 62.5t-67 144.5q0 56 39.5 93.5t91.5 37.5l139 1v110h-338v41h492v-41h-103z" />
    <glyph glyph-name="W" unicode="W" horiz-adv-x="12" 
d="M-64 618q-20 -20 -48 -31q-32 -10 -65 -10q-70 0 -109 38t-51 103l52 1q0 -46 31 -76q31 -28 78 -28q69 0 99 58q8 22 8 45l51 1q0 -56 -46 -101z" />
    <glyph glyph-name="X" unicode="X" horiz-adv-x="287" 
d="M213 475v-266q-3 -18 -22 -21q-13 0 -31 11l-40 34q-38 41 -44 73q0 7 2 9l7 6l4 1l6 2h4l5 1l58 1v149h-162v41h287v-41h-74z" />
    <glyph glyph-name="Y" unicode="Y" horiz-adv-x="385" 
d="M0 475v41h387v-41h-387zM449 296l-31 -15l-13 -9l-14 -13l-17 -20l-15 -24l-15 -29l-8 -23l-43 25l2 12l8 15l17 29l6 15q-6 19 -44 35l-34 14l-31 5q-14 0 -19.5 -1t-18 -6.5t-29.5 -21.5q-27 -35 -27 -70q0 -75 86 -130l35 -22l51 -24l-25 -42q-51 0 -135 87
q-61 64 -61 135q0 61 41 99.5t106 38.5q9 0 21 -0.5t30 -7.5q25 -6 45 -22l27 -21q9 -6 10 -13l9 7l8 6l19 13l14 9l23 10l25 8l10 2l13 2v-46z" />
    <glyph glyph-name="Z" unicode="Z" horiz-adv-x="5" 
d="M-30 711l-7 3l-19 4l-21 2q-29 0 -47 -20.5t-18 -50.5q0 -22 8.5 -47t23.5 -45l14 -19l19 -23l-38 1q-8 6 -14 14l-23 36l-13 27l-13 28q-9 27 -9 50q0 42 32.5 66t76.5 24l29 -3l27 -9l-1 -40z" />
    <glyph glyph-name="bracketleft" unicode="[" horiz-adv-x="469" 
d="M541 210l-13 -8l-38 -16l-18 -4l-17 -1q-71 0 -107 64q-8 22 -8 45q0 39 27.5 69.5t68.5 39.5l23 2l22 -3l23 -8l12 -36l-23 6l-25 3q-20 0 -30 -5q-26 -3 -42 -34q-5 -13 -5 -32q0 -48 40 -63l26 -4q18 0 29 4q27 3 54 30q8 8 17 23v-59zM512 76l-53 -23l-56 -16l-53 -5
q-45 0 -72 8q-73 20 -126 86q-37 47 -58 94l-17 40l-28 81l45 24l17 -56l6 -6l6 -4l16 -7l19 -2l20 3q18 6 24 23l3 19v140h-205v41h477v-41h-221v-143q0 -45 -41 -66l-36 -10l-46 -3l24 -53l24 -37q27 -43 74.5 -66.5t98.5 -23.5q28 0 51.5 5t52.5 18l34 15l25 15
q26 17 40 31v-52z" />
    <glyph glyph-name="backslash" unicode="\" horiz-adv-x="408" 
d="M319 394q-73 -73 -126 -73v-145h-52v168q27 0 93 42q90 57 90 127q0 46 -36.5 83.5t-82.5 37.5q-45 0 -99 -32q-19 -11 -29.5 -19t-13.5 -16l-38 44l29 18l24 14q59 34 123 34q48 0 94 -26.5t67 -70.5q3 -7 8 -24.5t5 -36.5q0 -69 -56 -125zM139 0v55h58v-55h-58z" />
    <glyph glyph-name="bracketright" unicode="]" horiz-adv-x="180" 
d="M80 -84h-43l41 141h61z" />
    <glyph glyph-name="asciicircum" unicode="^" horiz-adv-x="191" 
d="M129 461h-61l59 143h43z" />
    <glyph glyph-name="underscore" unicode="_" horiz-adv-x="816" 
d="M430 475v-209l121 56l-6 10l-1 14q0 11 5 27.5t28 29.5l23 6q52 0 52 -62q0 -17 -22 -35l-10 -6l-13 -8l77 -97l-32 -9l-21 -8q-53 -24 -53 -68q0 -18 6 -33q5 -9 18 -22l23 -11l29 -4q15 0 21.5 1.5t17.5 6.5q26 11 39 24l13 13l17 19l37 -42l-22 -19l-18 -12l-26 -13
l-24 -9l-26 -6l-25 -2q-16 0 -27 1.5t-28 6.5q-80 24 -80 103q0 44 28 71q34 31 72 31l-55 67l-138 -66v-221h-53v199l-215 -160l-33 45l225 146l-52 56q-48 53 -75 57q-28 0 -95 -34l-68 -35l-31 40l23 12l62 28l72 28l42 10q11 0 35 -15q27 -20 53 -48l43 -48
q9 -10 14 -22v216h-377v41h826v-41h-396z" />
    <glyph glyph-name="grave" unicode="`" horiz-adv-x="5" 
d="M-24 -209l-15 -7q-37 -17 -83 -17q-31 0 -47 8q-55 15 -77 58q-11 24 -11 48q0 25 8 44q10 36 55 58q12 3 21 5t20 2h83v-41h-71q-39 0 -57 -37l-6 -27q0 -37 27 -55q27 -22 63 -22q28 0 46 9l23 12l11 11l26 -39z" />
    <glyph glyph-name="a" unicode="a" horiz-adv-x="2" 
d="M-95 628v65h69v-65h-69z" />
    <glyph glyph-name="b" unicode="b" horiz-adv-x="445" 
d="M338 475v-131h-209l-3 -4l-3 -5l1 -14l4 -11l9 -15l15 -19l29 -32l16 -13l14 -3q19 0 49 9l26 9l24 7l20 2q24 0 40 -22q4 -6 11 -25l4 -27q0 -34 -11 -63q-14 -39 -53 -70l-25 -18q-28 -13 -48 -13l11 -12l10 -7l22 -19l18 -16l40 -26l28 -17l-27 -43l-15 10l-11 7
q-5 3 -13.5 9t-16.5 14l-51 44l-25 25l-19 17l-8 10h-35q-14 0 -33 5q-7 0 -15 5q-47 15 -47 64l3 17q3 9 10 16l14 10l19 4q32 0 73 -39l13 -17l18 -22q20 0 35 5q16 2 25 8q61 27 61 96l-1 19q0 13 -2.5 17.5t-4.5 6.5l-10 4l-16 -4l-33 -12l-38 -11l-28 -4
q-40 0 -87.5 64.5t-47.5 95.5l3 15l11 14l16 10l17 4l174 1v90h-285v41h451v-41h-113z" />
    <glyph glyph-name="c" unicode="c" horiz-adv-x="445" 
d="M373 475v-475h-53v152q-9 -12 -23 -22l-26 -13q-12 -6 -28 -9l-29 -2q-30 0 -54.5 8.5t-49 30t-36.5 46.5q-10 27 -10 58q0 57 42 99q20 20 46 32q14 6 27 8t26 2l23 -2l25 -4l5 -2l8 -2l7 -44q-4 6 -19 10l-26 4q-17 0 -23 -2l-22 -6l-20 -9l-15 -12l166 -114l6 22v246
h-320v41h443l2 -41h-72zM127 297l-4 -10l-2 -7l-5 -18l-1 -13q0 -24 6.5 -41.5t22.5 -31.5q14 -15 33 -24q23 -7 38 -7h16l11 4q8 2 13 4.5t14 9.5l10 7l12 11z" />
    <glyph glyph-name="d" unicode="d" horiz-adv-x="637" 
d="M357 475v-151l18 17l12 10q31 25 70 25q56 0 98 -38q39 -35 39 -91q0 -57 -52 -122l-22 -27l-30 -33l-43 33q7 2 16 11q42 42 65 94q11 28 11 48q0 28 -10 49q-18 35 -66 35q-41 0 -76 -44q-11 -15 -22 -39q-8 -22 -8 -38v-214h-52v148q-37 -37 -93 -37t-100 39.5
t-44 98.5q0 60 41 97q30 27 70 36l27 3l27 -3q20 -3 27 -8v-42l-10 4l-5 3l-15 4l-15 2q-42 0 -66 -30t-24 -71q0 -63 49 -88q21 -7 37 -7q36 0 73 37q21 21 21 40v249h-305v41h645v-41h-288z" />
    <glyph glyph-name="e" unicode="e" horiz-adv-x="472" 
d="M413 475v-475h-52v252h-183v-70l1 -11l-2 -6l-8 -6l-13 -2q-15 0 -40 26q-18 18 -51 60q-9 13 -10 26l3 13q4 5 11 9l5 2l10 3l43 1v178h-127v41h488v-41h-75zM361 475h-183v-178h183v178z" />
    <glyph glyph-name="f" unicode="f" horiz-adv-x="216" 
d="M535 516l-25 22l-24 24q-18 18 -36 31l-23 17l-60 40q-31 21 -71 34.5t-69 13.5q-24 0 -40 -8q-36 -12 -57 -58q-7 -25 -7 -47l1 -20l5 -23l6 -19l4 -8l87 1v-41h-85v-475h-53v475h-88v41h91l-4 9l-6 25l-6 27l-1 16q0 27 4.5 45t18.5 37q27 37 70 55q31 11 63 11
q76 0 171 -58q39 -24 70 -49l72 -60l29 -30l30 -29z" />
    <glyph glyph-name="g" unicode="g" horiz-adv-x="455" 
d="M375 475v-129h-238q-9 0 -13 -5l-4 -9l4 -17q2 -10 13 -21l4 -8l6 -7l12 -16l10 -12l7 -4l15 3l16 3l30 4l23 2q16 0 29.5 -1t32.5 -5q56 -15 76 -51q10 -22 10 -45q0 -20 -4.5 -33.5t-16.5 -25.5l-21 -16l-7 -5l-39 30l5 2l5 3l4 2l3 3q15 15 18 40q0 52 -58 59l-41 4
q-93 0 -118 -58q-9 -18 -9 -40q0 -29 27 -56q29 -26 83 -41l85 -21l23 -1q5 0 7 0.5t3 1.5l-19 -38q-4 -2 -18 -4q-31 0 -78 16l-38 13q-130 44 -130 136q0 24 16 50q8 13 19 24l24 24l-21 22l-13 17q-19 25 -27 43l-8 37l3 18l11 14l15 8l18 3l211 1v86h-322v41h475v-41
h-100z" />
    <glyph glyph-name="h" unicode="h" horiz-adv-x="215" 
d="M140 475v-475h-52v475h-88v41h76l1 4q0 24 -80 116q-48 56 -84 56q-32 0 -50 -25q-9 -14 -17 -42l-1 -19q0 -13 3.5 -24t6 -18.5t5.5 -13.5l13 -25l7 -10l-58 1l-12 16l-10 20l-7 22l-2 23q0 15 1 22t8 27q29 85 111 85q35 0 74 -27q47 -32 79 -81l29 -45l36 -63l95 1
v-41h-84z" />
    <glyph glyph-name="i" unicode="i" horiz-adv-x="445" 
d="M377 475v-475h-53v199l-18 -15l-13 -9q-35 -24 -76 -24q-87 0 -129 85q-10 30 -10 54v185h-78v41h459v-41h-82zM324 475h-195v-192q0 -57 56 -88l30 -5q30 0 61 19l19 15l13 14l16 21v216z" />
    <glyph glyph-name="j" unicode="j" horiz-adv-x="372" 
d="M309 475v-131q0 -65 -68 -92q-20 -7 -40 -7l-19 1q-14 2 -18 5l72 -103l28 -35l52 -57l22 -22l-37 -34q-15 5 -56 54q-49 57 -97 129l-31 46l-29 48l-21 36l-20 36l41 30l41 -70q16 -25 57 -25q33 0 48.5 14.5t21.5 50.5v126h-276v41h409v-41h-80z" />
    <glyph glyph-name="k" unicode="k" horiz-adv-x="215" 
d="M141 475v-475h-53v475h-98v41h248v-41h-97z" />
    <glyph glyph-name="l" unicode="l" horiz-adv-x="588" 
d="M518 475v-475h-53v260h-141l-35 41h176v174h-188v-167l-2 -10l-6 -22q-6 -21 -33 -33l-21 -6q-9 0 -12 -2l-10 -1l-11 1q-6 0 -14 4l62 -94l27 -35l48 -55l21 -21l-41 -34q-18 6 -48 51l-122 177l-28 46l-18 31l-18 32l43 28l29 -56q18 -35 59 -35l22 3q9 3 13 10l7 15
l2 21l-1 15v137h-235v41h610v-41h-82z" />
    <glyph glyph-name="m" unicode="m" horiz-adv-x="541" 
d="M410 475l12 -17l8 -12q9 -12 16 -35l5 -33q0 -57 -53 -92l20 -9q21 -11 42.5 -45.5t21.5 -80.5q0 -28 -11 -53q-35 -81 -135 -81q-76 0 -150 83q-56 63 -98 155l-27 60l-6 26l45 28l15 -41l16 -40l24 -54l16 -30q66 -117 134 -141q15 -5 31 -5q29 0 45.5 8.5t29.5 24.5
q17 26 17 66q0 34 -13.5 61.5t-43.5 42.5q-18 9 -39 9l-92 1l-19 43h109l29 3q13 3 19 8q24 17 24 57q0 28 -26 63l-11 12l-15 17l-360 1v41h561v-41h-141z" />
    <glyph glyph-name="n" unicode="n" 
d="M393 475v-135h-184q-24 0 -50 -24l-16 -25l-5 -27q0 -91 87 -124l36 -8l52 -4l-2 6v5q0 11 -2 15l-1 11q0 17 2 22l9 20q13 19 42 19q10 0 18 -5q17 -6 27 -30l4 -20q0 -32 -19 -50l-8 -7l-12 -8l25 -55l17 -29l17 -23l7 -8l8 -11h-66l-27 53l-28 59l-8 -2h-7
q-79 0 -128.5 23.5t-71 59.5t-21.5 90q0 46 29 82.5t71 36.5l148 1v92h-336v41h502v-41h-109z" />
    <glyph glyph-name="o" unicode="o" horiz-adv-x="445" 
d="M375 475v-475h-53v156l-23 -17l-22 -15l-31 -11l-31 -3q-59 0 -104 39q-24 21 -36 45q-5 11 -8 24.5t-3 30.5q0 58 39.5 101.5t95.5 43.5l18 -1l20 -3l17 -4q10 0 14 -2l11 -52l-11 6l-9 4l-27 8l-27 3q-22 0 -37 -7q-25 -9 -43 -52q-5 -18 -5 -36q0 -71 53 -98
q25 -7 40 -7h11l19 4q17 3 30 14q33 15 49 43v261h-332v41h477v-41h-92z" />
    <glyph glyph-name="p" unicode="p" horiz-adv-x="541" 
d="M475 475v-475h-53v199l-16 -20l-36 -29q-20 -16 -60 -32q-30 -12 -56 -12q-50 0 -83 29q-15 13 -24.5 34.5t-9.5 46.5q0 53 50 103q11 11 26 20l-164 1v41h305v-41h-67l-29 -20l-20 -16q-49 -40 -49 -86q0 -50 39 -67l28 -4q58 0 118 56l21 20q27 29 27 42v210h-422v41
h545v-41h-70z" />
    <glyph glyph-name="q" unicode="q" horiz-adv-x="5" 
d="M-44 -203q-47 -29 -109 -29q-49 0 -114 27l-39 18l-32 18q-30 18 -42 30l34 43l37 -27l28 -19q69 -46 130 -46q73 0 104 50q7 14 7 33q-2 13 -7 25l-15 20q-6 7 -18 15l-23 4q-24 0 -52 -19l-22 -22l-40 35l12 11l26 15q26 15 62 21l20 1q48 0 76 -28q16 -16 24 -35
q7 -26 7 -45q0 -63 -54 -96z" />
    <glyph glyph-name="r" unicode="r" 
d="M418 475v-475h-53v332h-187q-16 0 -31 -6q-22 -4 -34 -34l-4 -25q0 -68 42.5 -136t75.5 -89q9 -6 19 -6l-35 -36q-3 1 -5.5 2t-7.5 6l-28 27l-41 46l-17 24l-15 25q-21 36 -30.5 68.5t-9.5 68.5q0 45 23 75q8 12 27 22t39 10l219 1v100h-375v41h520v-41h-92z" />
    <glyph glyph-name="s" unicode="s" horiz-adv-x="3" 
d="M-119 516l-207 214l35 38l205 -252h-33z" />
    <glyph glyph-name="t" unicode="t" horiz-adv-x="637" 
d="M563 475v-475h-53v309h-155q6 -3 13 -20l18 -44l10 -35l4 -27q0 -9 -0.5 -19t-7.5 -28q-14 -43 -59 -63q-22 -8 -50 -8q-67 0 -128 71q-41 50 -73 133l-19 52l-4 22l43 32v-8l2 -13l18 -56q22 -68 62 -124q49 -70 103 -70q30 0 46.5 22.5t16.5 54.5q0 23 -9 52
q-12 37 -29 59l-26 38q-6 10 -15 17l239 1v127h-510v41h645v-41h-82z" />
    <glyph glyph-name="u" unicode="u" 
d="M424 475v-475h-53v297h-187v-86l-1 -14q0 -4 -1 -5.5t-9 -8.5l-11 -2q-6 0 -22 13l-37 39q-15 17 -32 44q-9 15 -12 27q0 17 16 29l9 3l12 1l275 1v137h-371v41h506v-41h-82z" />
    <glyph glyph-name="v" unicode="v" horiz-adv-x="576" 
d="M506 475v-475h-51v227l-15 -4l-15 -3l-13 -2h-8l-18 1l-31 9l-11 5l3 -10l3 -7l5 -23l2 -22q0 -105 -102 -125l-28 -2q-21 0 -39.5 5t-40.5 18q-39 23 -78 69q-65 76 -65 103l41 27l31 -55l25 -37q61 -91 128 -91q46 0 71 56q7 18 7 34t-1 23t-7 18q-7 27 -36 42.5
t-58 15.5h-17q-12 0 -21 -4l-5 -2l-6 -1l-17 38h24q14 3 19 4q46 12 71 50q11 19 11 40q0 19 -4 30q-6 27 -34 40q-18 7 -35 7q-25 0 -56 -19l-21 -16l-16 -15l-20 -21l-39 31q1 3 2.5 5t8.5 9l33 27q49 40 112 40q48 0 85 -37q31 -33 31 -81q0 -63 -57 -95l5 -1l9 -2l12 -5
l17 -8l9 -5l10 -4l11 -6l11 -4l23 -8l26 -2l20 1l35 9l13 5v203h-96v41h219v-41h-72z" />
    <glyph glyph-name="w" unicode="w" horiz-adv-x="2" 
d="M86 -227q0 12 -13 35l-20 31l-18 26q-33 47 -66.5 68.5t-72.5 21.5q-30 0 -45 -18t-19 -51q0 -43 35 -59l25 -5l16 2l17 7l7 4l8 5l27 -41l-13 -6l-32 -9l-32 -3q-47 0 -81.5 30.5t-34.5 77.5q0 41 36 79q38 32 84 32q86 0 168 -94q26 -29 40 -56l14 -26l15 -27z" />
    <glyph glyph-name="x" unicode="x" horiz-adv-x="523" 
d="M424 475v-475h-53v475h-158v-285q-2 -10 -8 -15l-14 -4q-10 0 -31 12q-45 33 -73 80q-11 19 -11 33q0 7 2 10l6 5l9 1l11 1l58 1v161h-162v41h536v-41h-112z" />
    <glyph glyph-name="y" unicode="y" horiz-adv-x="602" 
d="M527 475v-475h-52v303l-26 -7l-31 -15l-13 -9l-14 -13l-17 -20l-15 -24l-15 -29l-8 -23l-43 25l2 12l8 15l17 29l6 15q-6 19 -44 35l-34 14l-31 5q-14 0 -19.5 -1t-18 -6.5t-29.5 -21.5q-27 -35 -27 -70q0 -75 86 -130l35 -22l51 -24l-25 -42q-51 0 -135 87
q-61 64 -61 135q0 61 41 99.5t106 38.5q9 0 21 -0.5t30 -7.5q25 -6 45 -22l27 -21q9 -6 10 -13l9 7l8 6l19 13l14 9l23 8l25 7l10 1l13 2v130h-475v41h610v-41h-83z" />
    <glyph glyph-name="z" unicode="z" horiz-adv-x="5" 
d="M-357 0l-34 39l278 174v-41z" />
    <glyph glyph-name="braceleft" unicode="{" horiz-adv-x="313" 
d="M293 475v41h25v-41h-25zM371 281l-28 -8l-31 -5l-39 -1l-38 3l-48 10l-21 5l-27 9q-6 0 -16 -7l-23 -18q-37 -35 -37 -75q0 -25 10 -44q6 -13 24 -24l27 -11l35 -3h20l5 2l-2 4v16l3 24l9 16q8 8 14 9l19 4l21 -3q7 -3 17 -13l10 -17l4 -20l-3 -17l-7 -13l-12 -10l-17 -5
l11 -19l15 -16l14 -13l21 -15l-43 -30l-9 7l-20 20l-14 21l-5 9l-5 10l-4 12l-10 -4l-7 -1l-18 -4l-14 -1q-19 0 -28 1.5t-28 7.5q-49 18 -76 69q-10 30 -10 55q0 24 11 43.5t34 42.5l19 15l26 18q-7 3 -20 16l-20 31q-6 10 -13 30l-4 30q0 42 30 66t74 24t78.5 -24.5
t34.5 -71.5q0 -27 -19 -53l-16 -17l-15 -13l-21 -14l9 -4l9 -1l31 -5l35 -1l40 1q20 0 31 5l29 10q17 5 33 17v-46zM203 441q-3 8 -13 17l-19 10l-21 4q-14 0 -22 -4l-18 -9q-8 -6 -12 -16l-4 -21q0 -34 23 -60l9 -10l15 -11q13 3 19 8l14 8q33 24 33 65q0 11 -4 19z" />
    <glyph glyph-name="bar" unicode="|" horiz-adv-x="588" 
d="M521 475v-475h-52v145q-10 -26 -101 -68q-45 -21 -96 -29l-30 -2q-92 0 -128 71q-7 25 -7 38q0 19 4 31q3 19 11 27l6 7l9 9q-19 0 -50 32q-17 17 -23 45l-1 17q0 48 44 69l18 4l27 3l129 1v75h-281v41h594v-41h-73zM469 475h-139v-118h-162q-17 0 -23 -2q-18 0 -28 -14
l-4 -22q0 -20 16 -40l21 -20q9 -6 18 -6l7 2l5 2l27 9l18 3h37l29 -2l18 -40l-6 -1h-34l-6 1q-63 0 -84 -19.5t-21 -50.5q0 -33 27 -51l29 -15l34 -4q66 0 148 53l39 25q27 19 34 31v279z" />
    <glyph glyph-name="braceright" unicode="}" 
d="M383 475v-137h-195q-16 0 -28.5 -3.5t-21.5 -12.5q-9 -7 -13 -23l-4 -32q0 -78 88 -114q27 -8 55 -8l10 1l15 2l18 3l-1 9q0 9 5 18q15 55 54 55q32 0 42 -29l3 -18q0 -25 -14 -46q-7 -12 -19 -19l-22 -5l4 -18l3 -12l7 -29l11 -34l4 -10l3 -10l3 -9l5 -21l2 -17
q0 -10 -2 -14l-5 -11l-9 -8l-14 -5l-29 86l-15 -13l-32 -21q-25 -13 -53.5 -22t-55.5 -9q-44 0 -87.5 33.5t-43.5 81.5q0 33 24 59q26 26 60 32l-20 17l-13 16q-7 9 -13 19q-2 3 -13 24q-4 13 -6 23t-2 23q0 55 28.5 82t71.5 27l162 1v98h-330v41h490v-41h-107zM314 111
l-12 -3l-25 -2h-11l-17 1l-75 8l-29 -3q-26 -8 -36 -31q-3 -7 -4 -12t-1 -19q0 -27 23 -49q7 -6 25 -14l30 -5q16 0 24 1t24 7q18 4 53 22l32 20q13 10 15 14z" />
    <glyph glyph-name="asciitilde" unicode="~" horiz-adv-x="5" 
d="M-21 -205l-133 146l45 22l109 -145z" />
    <glyph glyph-name="quotesinglbase" unicode="&#x201a;" horiz-adv-x="215" 
d="M141 475v-475h-53v475h-98v41h248v-41h-97zM116 588q-31 -11 -64 -11q-70 0 -108.5 38t-50.5 103l52 1q0 -44 33 -77q11 -8 34 -19q22 -8 41 -8q46 0 76.5 28.5t30.5 74.5l52 1q-9 -101 -96 -131z" />
    <glyph glyph-name="florin" unicode="&#x192;" horiz-adv-x="355" 
d="M288 63l-24 -36l-24 -33l-56 37l3 1l3 2l5 3l21 16l14 16q8 13 13 23.5t12.5 32.5t11 37.5t6.5 40.5l3 33l3 44l-15 -5l-11 -3l-24 -7l-10 -2q-39 0 -83 34.5t-44 88.5q0 43 34 77t77 34q68 0 104 -72q17 -36 25 -103l2 -44q0 -126 -46 -215zM276 384q0 18 -7 31
q-12 41 -50 41q-27 0 -52.5 -26.5t-25.5 -57.5q0 -30 20 -46l22 -11l28 -4q42 0 68 32z" />
    <glyph glyph-name="quotedblbase" unicode="&#x201e;" horiz-adv-x="438" 
d="M359 -39l-34 45l-28 43l-28 48l-21 48l-28 -1l-43 3q-39 6 -59 39q-9 15 -9 38q0 25 17 36l19 12l23 4q32 0 58 -33l10 -14l12 -19l18 7l14 7q72 36 72 105q0 32 -11 51q-19 51 -98 64l-28 2q-33 0 -69 -9q-22 -6 -48 -24l-37 60l25 6l42 9l43 7l32 2q16 0 31 -1.5
t40 -11.5q74 -33 105 -102q14 -34 14 -69q0 -55 -35 -99q-17 -22 -38 -37q-16 -12 -41 -22l23 -48q9 -20 28 -44l33 -42l39 -39z" />
    <glyph glyph-name="ellipsis" unicode="&#x2026;" horiz-adv-x="402" 
d="M336 -107l-22 27l-23 29l-16 22l-26 41l-14 21l-5 11l-28 1l-39 1q-33 4 -53 29q-8 14 -8 35q0 19 15 33l16 10l19 4q18 0 53 -24l25 -25q7 0 17 5l26 16q36 21 36 54q0 11 -4 22l-9 25l-11 20l-6 7l-109 1l-37 51h121l17 8l13 9q26 18 30 58q0 31 -21 45q-15 8 -29 9
l-39 4l-31 -2h-16t-21 -4l-31 -5q-10 -1 -13 -4l-29 63h158q39 0 77 -36q31 -39 31 -84q0 -42 -23 -72l-10 -11l-14 -13q21 -15 34 -43q8 -17 9 -29l3 -28q0 -44 -24 -79q-23 -31 -65 -41l6 -11l11 -16l15 -18l17 -19l16 -19l20 -21l18 -17l10 -9z" />
    <glyph glyph-name="dagger" unicode="&#x2020;" horiz-adv-x="426" 
d="M384 365q-5 -8 -17.5 -21.5t-29.5 -29.5q-48 -46 -66 -53q13 -5 29 -21l32 -34q11 -13 21 -35l6 -27q0 -29 -7.5 -50t-25.5 -36q-10 -10 -36 -23q-15 -4 -24.5 -5.5t-19.5 -1.5q-32 0 -66 24t-49 57q-10 23 -10 48q0 22 12.5 42.5t32.5 41.5l19 17l26 22l-39 34l-27 26
q-64 61 -67 95l37 67l47 -31l-14 -10l-13 -11l-14 -17l-4 -14q0 -29 55 -80l22 -20l33 -25l36 27l26 21q16 13 26 23t22 24.5t15 27.5q0 30 -13 50l-5 5l-12 9l16 17l31 -26q19 -16 29 -50l2 -19q0 -15 -16 -38zM254 252l-16 -11l-31 -30q-30 -28 -40 -55l-5 -22
q0 -50 34 -69l25 -5q12 0 17.5 1.5t15.5 6.5q35 18 56 58q4 9 6 16.5t2 18.5z" />
    <glyph glyph-name="daggerdbl" unicode="&#x2021;" horiz-adv-x="426" 
d="M373 -102l-139 88l-6 -8l-5 -6l-20 -11l-23 -4q-25 0 -36 9.5t-11 31.5l2 13l8 13q5 6 12 9l15 3l41 -9l51 153l-4 -3l-4 -1l-8 -1h-16q-60 0 -100 64q-30 45 -39 105l-3 38q0 26 5 39q6 22 15 41l21 38l62 -34l-15 -19l-14 -17l-11 -17l-9 -22q-7 -23 -7 -37v-38l4 -21
q9 -44 40 -62q18 -7 34 -7l17 1l19 6l18 6l10 6v16q2 11 5 18t12 27q21 39 54 39l13 -3q7 -3 9 -8l5 -18l2 -28q0 -23 -14 -45t-46 -45l-12 -8l-20 -7l-43 -177l147 -76z" />
    <glyph glyph-name="circumflex" unicode="&#x2c6;" horiz-adv-x="471" 
d="M396 -119l-11 16l-7 11l-18 29l-42 77l-7 18l-11 -3l-10 -3q-9 0 -12 -2h-10q-54 0 -113 60q-25 27 -42 60q-13 29 -13 62q0 44 28 78l7 6l8 8l-21 24l-18 30l-12 31l-4 30q0 44 36 70q12 6 26 6l155 1l23 -47h-148q-9 0 -18 -5q-9 -3 -16 -13l-10 -20q-3 -9 -3 -23
q0 -13 7 -24l16 -26l8 -10l12 -12l133 1l25 -49h-127q-24 0 -39 -27l-11 -27l-3 -27q0 -63 57 -96q21 -7 36 -7l24 4l-3 2l-5 13l-1 13q-3 34 34 50l20 4q38 0 53 -33l4 -25q0 -15 -3.5 -24.5t-13.5 -20.5l-12 -14l-10 -7l22 -35l26 -36l27 -35l27 -28z" />
    <glyph glyph-name="perthousand" unicode="&#x2030;" horiz-adv-x="471" 
d="M433 192q-30 -100 -104 -140q-40 -20 -85 -20q-119 0 -172 141q-18 45 -24 87l-11 75l-3 77v37l1 10q0 7 2 11l41 14l-2 -3v-5l-2 -9l-1 -10v-12q0 -7 -2 -15v-27q0 -164 50 -249q41 -71 111 -71q54 0 104 48l17 21l22 35q-42 0 -92.5 33.5t-72.5 79.5q-15 30 -15 68
q0 45 31.5 80t78.5 35q95 0 132 -122q4 -14 7 -33.5t3 -37.5q0 -53 -14 -98zM397 345q-1 14 -14 36.5t-29 34t-36 11.5q-33 0 -49 -22q-9 -11 -15 -25l-4 -29q0 -69 58 -103q41 -24 85 -24l9 85q0 18 -5 36z" />
    <glyph glyph-name="Scaron" unicode="&#x160;" horiz-adv-x="447" 
d="M435 -26q-1 -3 -2 -6.5t-6 -11.5l-11 -9l-18 -11l-25 25q12 2 16 5l11 7l7 10l3 15l-6 8l-13 7l-20 5l-29 2h-26q-58 0 -101 13l-29 13q-77 36 -77 103v13l1 9l2 10l5 13l12 30q2 4 6 12.5t10 17.5l7 11l10 13l-94 -3l-11 51h336l9 -51h-142q-13 0 -34 -12
q-37 -17 -63 -71q-9 -18 -9 -37q0 -45 37 -66l40 -16l52 -4q26 0 76 -6q72 -12 79 -65z" />
    <glyph glyph-name="guilsinglleft" unicode="&#x2039;" horiz-adv-x="447" 
d="M436 -33q0 -6 -7 -14l-10 -7l-15 -10l-19 15l14 8l6 3l7 10l2 14l-2 6l-7 5l-11 5l-14 5l-36 9l-43 3l-46 3q-13 0 -20.5 1.5t-25.5 7.5q-50 15 -74 65q-16 37 -16 91q0 36 18 60l7 9l12 11l-88 -1l-13 52h117l-7 3l-6 5l-8 8q-9 10 -15.5 28.5t-6.5 36.5q0 57 40 76
q17 8 40 13l53 4h60l8 -49l-18 1q-10 0 -13 2l-32 3l-25 1q-33 0 -58.5 -22t-25.5 -54q0 -16 13 -32l9 -10l9 -7l14 -8l190 1l9 -50h-158q-23 0 -57 -41q-24 -30 -31 -56l-2 -20q0 -49 28 -65q10 -5 30 -10l42 -3l35 1q30 0 42.5 -1.5t27.5 -6.5q53 -12 72 -47q8 -16 8 -35z
" />
    <glyph glyph-name="OE" unicode="&#x152;" horiz-adv-x="438" 
d="M371 114q-44 -47 -115 -47q-66 0 -124 45.5t-58 115.5q0 51 28 93t77 63q13 5 31 9t32 4q69 0 121.5 -48.5t52.5 -120.5q0 -66 -45 -114zM341 323q-28 28 -73 28q-57 0 -100 -46t-43 -109q0 -18 9 -36q6 -13 23 -28l34 -20q18 -6 39 -6q40 0 75 28q33 24 51 64
q8 18 10.5 31t2.5 26q0 40 -28 68z" />
    <glyph glyph-name="c144" horiz-adv-x="494" 
d="M201 250v-91l-1 -6l-8 -7l-10 -2q-9 0 -26 13q-24 17 -44 40l-38 45q-10 15 -13 27l3 8l8 8l9 5l7 2l60 1v140q0 18 -13 31t-32 13q-9 0 -20 -4l-17 -9l-11 -16l-4 -21l1 -14l5 -15l2 -7l5 -9l-50 1l-4 7l-1 6l-4 14l-1 13q0 44 29.5 68.5t71.5 24.5q66 0 89 -51
q7 -21 7 -37v-135h157v182h-98v41h248v-41h-97v-475h-53v250h-157z" />
    <glyph glyph-name="quoteleft" unicode="&#x2018;" horiz-adv-x="229" 
d="M230 146q-58 0 -104 35t-46 95v199h-80v41h234v-41h-93l183 -190v-101q-33 -38 -94 -38zM133 434v-159q0 -42 26 -62q3 -3 12 -7.5t18 -9.5q17 -6 35 -6l27 3l27 9l23 15l17 20z" />
    <glyph glyph-name="quoteright" unicode="&#x2019;" horiz-adv-x="229" 
d="M230 146q-58 0 -104 35t-46 95v199h-80v41h234v-41h-93l183 -190v-101q-33 -38 -94 -38zM133 434v-159q0 -42 26 -62q3 -3 12 -7.5t18 -9.5q17 -6 35 -6l27 3l27 9l23 15l17 20z" />
    <glyph glyph-name="quotedblleft" unicode="&#x201c;" horiz-adv-x="371" 
d="M297 475q14 -13 21 -27l16 -29l9 -31l4 -32q0 -54 -32 -102.5t-80 -68.5q-34 -14 -71 -14l166 -138l-35 -35l-240 203l35 35l33 -27l6 -2h6l26 1q29 3 56 18l31 21l24 25l16 27l5 21l2 29l-15 -13l-12 -9q-15 -12 -34 -18l-31 -5q-48 0 -80 31q-17 15 -26.5 34.5
t-9.5 40.5q0 32 28 64l-115 1v41h369v-41h-72zM280 422q-3 10 -8 16q-24 38 -67 38q-18 0 -27 -5q-22 -6 -33 -33l-4 -23q0 -30 19 -49t49 -19q32 0 61 27l8 11l11 16z" />
    <glyph glyph-name="quotedblright" unicode="&#x201d;" horiz-adv-x="371" 
d="M297 475q14 -13 21 -27l16 -29l9 -31l4 -32q0 -54 -32 -102.5t-80 -68.5q-34 -14 -71 -14l166 -138l-35 -35l-240 203l35 35l33 -27l6 -2h6l26 1q29 3 56 18l31 21l24 25l16 27l5 21l2 29l-15 -13l-12 -9q-15 -12 -34 -18l-31 -5q-48 0 -80 31q-17 15 -26.5 34.5
t-9.5 40.5q0 32 28 64l-115 1v41h369v-41h-72zM280 422q-3 10 -8 16q-24 38 -67 38q-18 0 -27 -5q-22 -6 -33 -33l-4 -23q0 -30 19 -49t49 -19q32 0 61 27l8 11l11 16z" />
    <glyph glyph-name="endash" unicode="&#x2013;" 
d="M393 475v-135h-184q-24 0 -50 -24l-16 -25l-5 -27q0 -91 87 -124l36 -8l52 -4l-2 6v5q0 11 -2 15l-1 11q0 17 2 22l9 20q13 19 42 19q10 0 18 -5q17 -6 27 -30l4 -20q0 -32 -19 -50l-8 -7l-12 -8l25 -55l17 -29l17 -23l7 -8l8 -11h-66l-27 53l-28 59l-8 -2h-7
q-79 0 -128.5 23.5t-71 59.5t-21.5 90q0 46 29 82.5t71 36.5l148 1v92h-336v41h502v-41h-109zM449 -224l-14 -7l-21 -7l-20 -6l-21 -3l-21 -1q-15 0 -23 1t-25 7q-53 18 -75 58q-12 23 -12 48q0 50 28 78q14 14 35.5 22.5t40.5 8.5h84v-41h-71q-25 0 -44 -19q-10 -9 -16 -20
l-4 -25q0 -36 28.5 -56.5t61.5 -20.5q17 0 23 2q12 0 23 7l22 12q10 5 12 11l27 -39z" />
    <glyph glyph-name="emdash" unicode="&#x2014;" horiz-adv-x="637" 
d="M357 475v-151l18 17l12 10q31 25 70 25q56 0 98 -38q39 -35 39 -91q0 -57 -52 -122l-22 -27l-30 -33l-43 33q7 2 16 11q42 42 65 94q11 28 11 48q0 28 -10 49q-18 35 -66 35q-41 0 -76 -44q-11 -15 -22 -39q-8 -22 -8 -38v-214h-52v148q-37 -37 -93 -37t-100 39.5
t-44 98.5q0 60 41 97q30 27 70 36l27 3l27 -3q20 -3 27 -8v-42l-24 8l-22 3q-37 0 -64 -26q-7 -7 -20 -30q-7 -21 -7 -36q0 -42 25 -71q11 -14 29 -23q9 -4 16 -6t18 -2q36 0 73 37q21 21 21 40v249h-305v41h635v-41h-278zM403 -199l-14 -7q-46 -17 -82 -17q-29 0 -48 8
q-49 13 -76 61q-11 20 -11 47q0 69 62 100q12 3 21 5t20 2h82v-39h-68q-24 0 -44 -18q-8 -9 -16 -22l-4 -25q0 -18 7 -31q6 -17 34 -33q20 -11 50 -11q46 0 79 29l25 -39z" />
    <glyph glyph-name="tilde" unicode="&#x2dc;" 
d="M178 -23l1 -4l-2 -4l-5 -5q-12 0 -17 2l-34 11l-14 5q-12 5 -15 7l-18 12v5l3 7l6 7l33 16l-35 77l-10 11l-13 4l-12 -3q-2 -1 -4.5 -2t-6.5 -5l-8 -10l-2 -12l1 -6v-4l6 -9l3 -4l4 -3l3 -3l5 -4l-27 -12l-4 2l-2 3l-6 7l-4 7l-4 12l-1 12q0 10 4.5 20t14.5 21
q18 15 46 18l13 -2l13 -6l11 -9l9 -13l34 -73l116 61q-27 0 -75 9q-10 0 -21 7q-96 36 -96 140q0 50 27.5 84.5t72.5 34.5l162 1v88h-330v41h490v-41h-107v-127h-195q-67 0 -67 -81q0 -78 88 -114q27 -8 55 -8l10 1l15 2l18 3l-1 9q0 9 5 18q15 55 54 55q32 0 42 -29l3 -18
q0 -25 -14 -46q-7 -12 -19 -19l-22 -5l2 -13l7 -35l7 -22l12 -29l17 -27l10 -14l10 -11h-59l-18 41l-12 29q-1 4 -6.5 19.5t-6.5 19.5l-4 36l-159 -84z" />
    <glyph glyph-name="trademark" unicode="&#x2122;" horiz-adv-x="290" 
d="M0 516h404v-39l-404 -2v41zM195 123l30 -51l1 -9l1 -5q0 -12 -6 -15l-8 -2l-10 -1l-14 1q-11 0 -18 4l-23 6l-27 12l-18 9l-13 11l-7 10l-2 11q0 17 21 34l4 3l7 4l242 103l-18 20l-14 16q-17 20 -36 34q-17 16 -29 21l-15 6l-16 4l-18 2l-16 1l-24 -1l-22 -3l-9 -2
l-11 -3l4 -72l-3 -11l-3 -6l-7 -6l-8 -2l-10 2l-13 8l-15 13l-17 18l-28 36l-6 10l-2 10q0 12 14 23l43 17l59 10l64 4q23 0 36.5 -1t27 -7t27.5 -20q24 -19 43 -43l20 -24l28 -32v-47z" />
    <glyph glyph-name="guilsinglright" unicode="&#x203a;" horiz-adv-x="6" 
d="M-95 516l-172 226l47 26l160 -252h-35zM-181 516l-197 132l37 41l185 -173h-25zM-26 642v56h61v-56h-61zM29 751l-7 3l-20 4l-19 2q-29 0 -47 -20.5t-18 -50.5q0 -22 8.5 -47t23.5 -45l14 -19l19 -23l-38 1q-8 6 -14 14l-23 36l-13 27l-13 28q-9 27 -9 50q0 42 32.5 66
t76.5 24l28 -3l27 -9v-40z" />
    <glyph glyph-name="Ydieresis" unicode="&#x178;" horiz-adv-x="348" 
d="M0 475v41h393v-41h-393zM258 328q-33 0 -63.5 -24.5t-30.5 -64.5q0 -56 63 -130l26 -30l38 -37l-31 -38l-42 44l-30 36q-73 88 -73 155q0 29 13 49l9 14l25 25l-141 1v39h418v-39h-181z" />
    <glyph glyph-name="nonbreakingspace" unicode="&#xa0;" horiz-adv-x="379" 
 />
    <glyph glyph-name="exclamdown" unicode="&#xa1;" horiz-adv-x="12" 
d="M-207 699v55h59v-55h-59zM-64 618q-20 -20 -48 -31q-32 -10 -65 -10q-70 0 -109 38t-51 103l52 1q0 -46 31 -76q31 -28 78 -28q69 0 99 58q8 22 8 45l51 1q0 -56 -46 -101z" />
    <glyph glyph-name="cent" unicode="&#xa2;" horiz-adv-x="3" 
d="M-319 516l-207 214l35 38l205 -252h-33z" />
    <glyph glyph-name="sterling" unicode="&#xa3;" horiz-adv-x="632" 
d="M512 210l-4 -8q-11 -14 -35 -20l-18 -1q-71 0 -107 64q-8 22 -8 45q0 39 27.5 69.5t68.5 39.5l23 2l22 -3l23 -8l12 -36l-23 6l-25 3q-20 0 -30 -5q-26 -3 -42 -34q-5 -13 -5 -32l3 -30q6 -22 24 -33l19 -4q24 0 42 15l20 18l16 24v-59zM390 85l-41 29l118 79l8 -38z
M256 332q0 -45 -41 -66l-36 -10l-46 -3l24 -53l24 -37q27 -43 74.5 -66.5t98.5 -23.5q66 0 117 39l44 45v-52q-12 -15 -29 -29l-17 -10l-22 -13l-47 -16l-50 -5q-45 0 -72 8q-73 20 -126 86q-37 47 -58 94l-17 40l-28 81l45 24l17 -56l6 -6l6 -4l16 -7l19 -2l20 3
q18 6 24 23l3 19v140h-205v41h668v-41h-97v-475h-53v475h-262v-143z" />
    <glyph glyph-name="currency" unicode="&#xa4;" horiz-adv-x="220" 
d="M148 43v-26h-96v-70l14 -16l13 3l8 1l9 1h14l22 -31l-33 -3l-29 -9q-24 -10 -28 -32v-4l2 -6l2 -4l4 -5q8 -8 17 -12l22 -4q29 0 60 15.5t34 22.5v-43l-10 -6l-18 -9l-23 -8l-19 -5q-25 0 -50 15t-35 38q-5 11 -8 32l1 14l6 13q3 8 10 12l15 9l-36 29v88h132z" />
    <glyph glyph-name="yen" unicode="&#xa5;" horiz-adv-x="576" 
d="M510 475v-475h-53v219l-20 -6l-20 -1l-17 1l-16 3q-14 2 -18 5l-16 8q-2 -12 -5 -23t-12 -32l-8 -24q-44 -75 -130 -75q-53 0 -136 45q-13 6 -32 24l34 38q2 -6 13 -15l31 -21q11 -7 24.5 -14t25 -10.5t20.5 -5.5t20 -2q45 0 75 37q17 24 26 65l2 24q0 80 -57 109
q-20 9 -42 9q-9 0 -20 -4l-22 -9l-10 -6l-12 -8l-35 40l19 7l14 7l35 12l27 4q77 0 123 -67l15 -28l15 -39l9 -4l9 -3l16 -6l14 -1q19 0 32.5 3.5t28.5 12.5v206h-457v41h582v-41h-72z" />
    <glyph glyph-name="section" unicode="&#xa7;" horiz-adv-x="220" 
d="M148 43v-26h-96v-70l14 -16l13 3l8 1l9 1h14l22 -31l-33 -3l-29 -9q-24 -10 -28 -32v-4l2 -6l2 -4l4 -5q8 -8 17 -12l22 -4q29 0 60 15.5t34 22.5v-43l-10 -6l-18 -9l-23 -8l-19 -5q-25 0 -50 15t-35 38q-5 11 -8 32l1 14l6 13q3 8 10 12l15 9l-36 29v88h132z" />
    <glyph glyph-name="dieresis" unicode="&#xa8;" horiz-adv-x="215" 
d="M141 475v-475h-53v475h-88v41h66l-193 214l37 38l203 -252h100v-41h-72z" />
    <glyph glyph-name="copyright" unicode="&#xa9;" horiz-adv-x="215" 
d="M141 475v-475h-53v475h-88v41l-203 132l37 41l193 -173h49l-168 226l47 26l158 -252h100v-41h-72z" />
    <glyph glyph-name="ordfeminine" unicode="&#xaa;" horiz-adv-x="12" 
d="M-127 -143l-123 153l-135 -153h-60l166 180h54l157 -180h-59z" />
    <glyph glyph-name="guillemotleft" unicode="&#xab;" horiz-adv-x="324" 
d="M-2 475v41h371v-41h-371zM172 45l-31 45l248 129l-57 55q-59 57 -83 57q-37 0 -96 -31l-67 -35l-31 40l31 17l87 36l50 18q17 6 31 6q27 0 91 -65l69 -70v-58z" />
    <glyph glyph-name="registered" unicode="&#xae;" horiz-adv-x="215" 
d="M141 475v-475h-53v475h-88v41h66l-193 214l37 38l203 -252h100v-41h-72z" />
    <glyph glyph-name="plusminus" unicode="&#xb1;" horiz-adv-x="12" 
d="M-86 602v56h61v-56h-61zM-30 711l-7 3l-19 4l-21 2q-29 0 -47 -20.5t-18 -50.5q0 -22 8.5 -47t23.5 -45l14 -19l19 -23l-38 1q-8 6 -14 14l-23 36l-13 27l-13 28q-9 27 -9 50q0 42 32.5 66t76.5 24l29 -3l27 -9l-1 -40z" />
    <glyph glyph-name="threesuperior" unicode="&#xb3;" horiz-adv-x="588" 
d="M510 279v59h62v-59h-62zM451 475v-131h-213l-6 -8l-1 -7l1 -11q2 -9 5 -12l8 -16l15 -21l15 -18l15 -12l15 -9l15 -2h6l4 1l69 20l25 6l17 2q22 0 40 -27l8 -25l3 -28q0 -21 -2 -35.5t-9 -32.5q-21 -60 -82 -82q-30 -10 -61 -10q-72 0 -146 58q-62 47 -106 108l-31 42
l-10 20l39 38q2 -9 10 -22q3 -8 27 -40q14 -21 23 -33l24 -27l49 -47q21 -19 64 -41q30 -15 57 -15q44 0 74 31q15 16 22 36t7 50q0 33 -26 33q-9 0 -23 -5q-19 -3 -39 -13l-21 -7l-14 -2q-48 0 -96 61.5t-48 100.5l3 19q3 9 11 13l17 7l22 2l173 1v90h-400v41h586v-41h-135
z" />
    <glyph glyph-name="acute" unicode="&#xb4;" horiz-adv-x="576" 
d="M510 475v-475h-53v219l-20 -6l-20 -1l-17 1l-16 3q-14 2 -18 5l-16 8q-2 -12 -5 -23t-12 -32l-8 -24q-44 -75 -130 -75q-53 0 -136 45q-13 6 -32 24l34 38q2 -6 13 -15l31 -21q11 -7 24.5 -14t25 -10.5t20.5 -5.5t20 -2q45 0 75 37q17 24 26 65l2 24q0 80 -57 109
q-20 9 -42 9q-9 0 -20 -4l-22 -9l-10 -6l-12 -8l-35 40l19 7l14 7l35 12l27 4q77 0 123 -67l15 -28l15 -39l9 -4l9 -3l16 -6l14 -1q19 0 32.5 3.5t28.5 12.5v206h-457v41h582v-41h-72z" />
    <glyph glyph-name="paragraph" unicode="&#xb6;" horiz-adv-x="420" 
d="M416 324q-16 -6 -27 -19q-15 -13 -22 -29l-7 -15l-8 -20v-241h-53v199q-9 -12 -22 -18l-23 -11l-25 -7l-25 -2q-18 0 -26.5 1.5t-25.5 7.5q-50 21 -70 69q-4 10 -7 24.5t-3 28.5v183h-72v41h418v-41h-66v-153l20 17l28 19l30 15l25 5v-44zM299 475h-176v-190
q0 -45 23 -68q5 -5 21 -13l32 -4q42 0 71 28q23 23 29 50v197z" />
    <glyph glyph-name="periodcentered" unicode="&#xb7;" horiz-adv-x="361" 
d="M341 26q-30 -23 -78 -32l-34 -2q-51 0 -105 30l-53 31q-35 23 -44 40l36 36q0 -6 14 -20l40 -33q57 -48 108 -48h19l18 4q44 12 60 43q10 20 10 39q0 17 -16 42q-20 29 -54 58l-66 54l-64 56q-38 33 -55 59q-16 29 -16 48q0 43 26 63.5t69 20.5l209 1v-39l-211 -2
q-9 0 -17 -4l-15 -9l-11 -14l-4 -15q0 -20 72 -82l135 -113q31 -25 55 -64q18 -30 18 -52q0 -60 -46 -96z" />
    <glyph glyph-name="periodcentered" unicode="&#x2219;" horiz-adv-x="361" 
d="M341 26q-30 -23 -78 -32l-34 -2q-51 0 -105 30l-53 31q-35 23 -44 40l36 36q0 -6 14 -20l40 -33q57 -48 108 -48h19l18 4q44 12 60 43q10 20 10 39q0 17 -16 42q-20 29 -54 58l-66 54l-64 56q-38 33 -55 59q-16 29 -16 48q0 43 26 63.5t69 20.5l209 1v-39l-211 -2
q-9 0 -17 -4l-15 -9l-11 -14l-4 -15q0 -20 72 -82l135 -113q31 -25 55 -64q18 -30 18 -52q0 -60 -46 -96z" />
    <glyph glyph-name="cedilla" unicode="&#xb8;" horiz-adv-x="287" 
d="M353 167l-31 -14l-17 -5l-16 -4q-14 0 -18 -2l-16 -1q-38 0 -67.5 10.5t-60 36.5t-45.5 57q-14 33 -14 74l8 -2q14 -2 18 -4h10l34 3q32 6 46 36q7 18 7 36q0 14 -5.5 27.5t-7.5 16.5l-12 18l-11 11l-14 13l-141 1v41h291v-41h-86l20 -27q9 -12 16 -32l5 -30
q0 -67 -58 -97l-25 -8l-34 -7l3 -9l4 -8l3 -7l3 -6q15 -29 48 -49q29 -16 62 -16q42 0 78 24q19 13 31 26t20 30v-71q-15 -15 -28 -21z" />
    <glyph glyph-name="ordmasculine" unicode="&#xba;" horiz-adv-x="445" 
d="M229 219q-24 0 -39 -8q-11 -3 -32 -21q-29 -24 -29 -68q0 -66 116 -96l33 -4l25 -4l58 -7l-17 -36l-22 -1q-8 0 -29 3t-52 9t-42 11q-75 21 -108 70q-17 26 -17 61q0 24 16 50q8 13 19 24l24 24l-21 22l-13 17q-19 25 -27 43l-8 37l3 18l11 14l15 8l18 3l211 1v86h-322
v41h445v-41h-70v-129h-238q-9 0 -14 -5l-4 -10l4 -16q7 -14 14 -21l8 -13l12 -14l2 -4l5 -4l291 1v-41h-226z" />
    <glyph glyph-name="guillemotright" unicode="&#xbb;" horiz-adv-x="553" 
d="M240 404v69h69v-69h-69zM14 234v43h513v-43h-513zM240 43v68h69v-68h-69z" />
    <glyph glyph-name="onequarter" unicode="&#xbc;" horiz-adv-x="240" 
d="M230 -176l-11 15l-27 44l-40 76l-17 39l-15 41q-20 60 -30 116.5t-10 101.5q0 119 38 226q31 88 72 152l27 41q7 11 13 14l59 1q-24 -25 -55 -75l-25 -48l-27 -60l-22 -63l-15 -62l-9 -63l-3 -63q0 -25 2 -53t8 -58q15 -86 63 -187q23 -48 42 -76l41 -59h-59z" />
    <glyph glyph-name="onehalf" unicode="&#xbd;" horiz-adv-x="252" 
d="M194 94q-29 -111 -91 -210l-28 -45l-9 -13l-2 -2h-56l20 30l20 29l21 36l20 39l34 77q16 36 31 113q4 24 7 54.5t3 54.5q0 121 -40 229q-11 28 -22 53.5t-30 60.5q-10 17 -11 19q-6 10 -12 17l-29 40l-10 12l-2 2l56 1l12 -15l27 -41l21 -36q60 -114 81 -228q4 -24 7 -56
t3 -58q0 -80 -21 -163z" />
    <glyph glyph-name="threequarters" unicode="&#xbe;" horiz-adv-x="564" 
d="M18 332v43h513v-43h-513zM18 135v43h513v-43h-513z" />
    <glyph glyph-name="questiondown" unicode="&#xbf;" horiz-adv-x="203" 
d="M244 -182q-101 0 -129 68q-11 25 -11 53v209q0 33 -18 66.5t-53 54.5l10 8l9 6l18 15l12 15l8 15l7 20l5 20l2 16v210q0 20 9 46q18 48 58 67q23 10 43 10l13 -2l17 -3l82 1v-31h-80q-15 0 -21.5 -1.5t-17.5 -6.5q-37 -15 -54 -48q-7 -21 -7 -35l-2 -223q0 -10 -4 -23
q0 -6 -1 -10t-7 -15l-11 -18l-53 -32l10 -8l8 -4q12 -5 18 -14l13 -11l4 -7l6 -8l9 -25l7 -27l3 -21v-204q0 -42 27 -63q18 -14 51 -20l22 -1h80v-39h-82z" />
    <glyph glyph-name="Agrave" unicode="&#xc0;" horiz-adv-x="385" 
d="M293 221q-8 -14 -16 -37l-4 -37v-208q0 -57 -43 -91q-26 -20 -69 -28l-30 -2h-80v39h78q44 0 71 21q27 17 27 63l2 225l8 26l10 25l13 18l12 10l17 13l7 4l11 7l-51 34l-11 13l-8 20l-8 26l-2 22v208q0 36 -30.5 62.5t-67.5 26.5l-78 1v31h80l8 1l7 2l6 1h9
q45 0 78.5 -39.5t33.5 -84.5l1 -227q0 -11 4 -18l6 -18l8 -16l5 -8l15 -15l10 -8l8 -6l12 -8q-29 -15 -49 -48z" />
    <glyph glyph-name="Aacute" unicode="&#xc1;" horiz-adv-x="445" 
d="M377 475v-475h-53v217l-250 -217l-39 35l168 133q-57 0 -89 38q-16 18 -27 45q-9 26 -9 55v169h-78v41h445v-41h-68zM322 475h-193v-176q0 -57 56 -88l30 -5q18 0 33 8q28 14 39 25l15 13l20 20v203z" />
    <glyph glyph-name="Atilde" unicode="&#xc3;" horiz-adv-x="445" 
d="M451 516v-41h-113v-131h-209l-3 -4l-3 -5l1 -14l4 -11l9 -15l15 -19l29 -32l16 -13l14 -3q19 0 49 9l26 9l24 7l20 2q24 0 40 -22q4 -6 11 -25l4 -27q0 -34 -11 -63q-14 -39 -53 -70l-25 -18q-28 -13 -48 -13l11 -12l10 -7l22 -19l18 -16l40 -26l28 -17l-27 -43l-15 10
l-11 7q-5 3 -13.5 9t-16.5 14l-51 44l-25 25l-19 17l-8 10h-35q-14 0 -33 5q-7 0 -15 5q-47 15 -47 64l3 17q3 9 10 16l14 10l19 4q32 0 73 -39l13 -17l18 -22q20 0 35 5q16 2 25 8q61 27 61 96l-1 19q0 13 -2.5 17.5t-4.5 6.5l-10 4l-16 -4l-33 -12l-38 -11l-28 -4
q-40 0 -87.5 64.5t-47.5 95.5l3 15l11 14l16 10l17 4l174 1v90h-285v41h286l-20 29l-19 36l-19 48q-6 23 -6 42q0 40 32 65t77 25l29 -3l27 -9v-40l-8 2l-7 3l-20 4l-20 2q-42 0 -61 -41l-4 -30q0 -24 12 -56l10 -22l16 -28l19 -28z" />
    <glyph glyph-name="Adieresis" unicode="&#xc4;" horiz-adv-x="536" 
d="M363 133l-32 -14l-47 -15l-42 -5q-10 0 -21.5 0.5t-29.5 7.5q-55 18 -79 60q-10 23 -10 45q0 41 28 69l11 11l17 14l-24 10l-16 10q-40 25 -40 73l2 20l7 23l10 20l10 12l-107 1v41h548v-41h-97v-475h-53v153zM398 475h-228l-12 -11l-8 -8l-16 -26l-5 -27q0 -28 26 -50
l22 -14l24 -4l86 1l18 -37h-55q-15 0 -32 -7q-64 -20 -64 -80q0 -33 28 -52l31 -16l37 -4q24 0 54 10.5t46 19.5l14 9l34 23v273z" />
    <glyph glyph-name="Aring" unicode="&#xc5;" horiz-adv-x="672" 
d="M365 475l12 -17l8 -12q9 -12 16 -35l5 -33q0 -60 -56 -94l29 -20l7 -8l12 -13l2 -3l4 -3l18 19l15 15l21 15l21 11l20 7l21 2q45 0 77 -34.5t32 -79.5q0 -13 -1 -21t-5.5 -23.5t-7.5 -23.5t-12 -26q-29 -59 -60 -91l-47 28l24 28l18 23q42 54 42 108l-3 26l-9 22
q-16 25 -50 25q-29 0 -66 -37l-12 -16l-14 -22v-15l1 -7q0 -58 -21 -94q-35 -59 -115 -59q-79 0 -139 78q-47 62 -73 145l-17 56l-3 25l43 33l18 -77q18 -83 59 -141q27 -39 52.5 -57.5t57.5 -18.5q49 0 70 30l10 26l4 37q0 28 -5 39q0 17 -13 33q-19 34 -56 34l-78 1
l-20 43h92l18 6q8 3 13 8q31 25 31 65q0 28 -26 63l-11 12l-15 17l-303 1v41h682v-41h-317z" />
    <glyph glyph-name="AE" unicode="&#xc6;" horiz-adv-x="215" 
d="M638 711l-6 3l-19 4l-19 2q-30 0 -49.5 -19.5t-19.5 -51.5q0 -24 9.5 -47.5t24.5 -44.5l14 -19l21 -23l-59 1l-25 22l-24 24q-18 18 -36 31l-23 17l-60 40q-31 21 -71 34.5t-69 13.5q-24 0 -40 -8q-36 -12 -57 -58q-7 -25 -7 -47l1 -20l6 -22l7 -20l4 -8l72 1v-41h-72
v-475h-53v475h-88v41h92l-3 3l-3 13l-9 33l-3 28q0 62 43 105t113 43q41 0 85 -17q56 -21 94 -48l37 -27l46 -39l-4 8l-1 7l-4 21l-1 25q0 62 63 84q18 6 41 6l32 -3l28 -9v-40z" />
    <glyph glyph-name="Ccedilla" unicode="&#xc7;" horiz-adv-x="216" 
d="M535 516l-25 22l-24 24q-18 18 -36 31l-23 17l-60 40q-31 21 -71 34.5t-69 13.5q-24 0 -40 -8q-36 -12 -57 -58q-7 -25 -7 -47l1 -20l5 -23l6 -19l4 -8l87 1v-41h-85v-475h-53v475h-88v41h91l-4 9l-6 25l-6 27l-1 16q0 27 4.5 45t18.5 37q27 37 70 55q31 11 63 11
q76 0 171 -58q39 -24 70 -49l72 -60l29 -30l30 -29zM555 613v65h69v-65h-69z" />
    <glyph glyph-name="Egrave" unicode="&#xc8;" horiz-adv-x="215" 
d="M140 475v-475h-52v475h-88v41h76l1 4q0 24 -80 116q-48 56 -84 56q-32 0 -50 -25q-9 -14 -17 -42l-1 -19q0 -13 3.5 -24t6 -18.5t5.5 -13.5l13 -25l7 -10l-58 1l-12 16l-10 20l-7 22l-2 23q0 15 1 22t8 27q29 85 111 85q35 0 74 -27q47 -32 79 -81l29 -45l36 -63l95 1
v-41h-84zM135 578v65h69v-65h-69z" />
    <glyph glyph-name="Eacute" unicode="&#xc9;" horiz-adv-x="215" 
d="M584 602v56h59v-56h-59zM638 711l-6 3l-19 4l-19 2q-30 0 -49.5 -19.5t-19.5 -51.5q0 -24 9.5 -47.5t24.5 -44.5l14 -19l21 -23l-59 1l-25 22l-24 24q-18 18 -36 31l-23 17l-60 40q-31 21 -71 34.5t-69 13.5q-24 0 -40 -8q-36 -12 -57 -58q-7 -25 -7 -47l1 -20l6 -22
l7 -20l4 -8l72 1v-41h-72v-475h-53v475h-88v41h92l-3 3l-3 13l-9 33l-3 28q0 62 43 105t113 43q41 0 85 -17q56 -21 94 -48l37 -27l46 -39l-4 8l-1 7l-4 21l-1 25q0 62 63 84q18 6 41 6l32 -3l28 -9v-40z" />
    <glyph glyph-name="Ecircumflex" unicode="&#xca;" horiz-adv-x="215" 
d="M140 475v-475h-52v475h-88v41h76l1 4q0 24 -80 116q-48 56 -84 56q-32 0 -50 -25q-9 -14 -17 -42l-1 -19q0 -13 3.5 -24t6 -18.5t5.5 -13.5l13 -25l7 -10l-58 1l-12 16l-10 20l-7 22l-2 23q0 15 1 22t8 27q29 85 111 85q35 0 74 -27q47 -32 79 -81l29 -45l36 -63l95 1
v-41h-84zM234 731l-7 3l-20 4l-20 2q-42 0 -61 -41l-4 -30q0 -24 9 -48.5t23 -43.5l13 -19l20 -23l-37 1q-7 0 -15 14l-23 36q-35 55 -35 105q0 40 32 65t77 25l29 -3l27 -9v-40z" />
    <glyph glyph-name="Edieresis" unicode="&#xcb;" horiz-adv-x="264" 
d="M248 475v41h20v-41h-20zM341 158l-36 -25q-58 -40 -131 -40q-47 0 -88 30.5t-41 76.5q0 33 25 65l10 10l16 13q-16 7 -30 23q-31 32 -42 55l-8 20q-4 10 -6 18.5t-2 18.5q0 45 28 73t73 28q62 0 85 -48q5 -13 7 -30v-30h-45v31q0 40 -45 40q-21 0 -37 -19l-10 -20l-3 -23
q0 -23 5 -38q2 -7 5.5 -14t11.5 -18q15 -21 28 -34q6 -5 13.5 -7.5l10.5 -3.5l34 10l39 4l18 -1l20 -2l22 -38l-67 -3q-29 0 -39 -5q-62 -14 -62 -73q0 -43 53 -64l31 -4q60 0 123 47l22 20l26 28v-53q0 -8 -14 -18z" />
    <glyph glyph-name="Igrave" unicode="&#xcc;" horiz-adv-x="385" 
d="M311 475v-104h-163l-16 -3l-11 -1q-27 -6 -27 -36q0 -27 20 -46l13 -12l10 -4l45 14l4 -1l5 1h8l7 1h15l4 -1h5l9 -1h7l24 -42h-9l-10 2h-6l-6 1h-28q-10 0 -21 -4l-28 -9q-13 -7 -23 -23t-10 -36q0 -28 10 -45q5 -14 24 -26l28 -11l35 -4l17 1l11 3l-2 4v19q0 16 2 21
l7 17q7 10 17.5 15.5t24.5 5.5q33 0 42 -31l3 -20l-3 -20l-9 -17q-7 -8 -14 -12l-17 -4l52 -90l-44 -24l-45 102l-4 -3l-9 -1l-14 -2h-15q-60 0 -96 21q-26 15 -40 40t-14 63q0 14 2 18l7 20l16 24l6 10l-19 13l-13 10q-32 32 -32 63q0 41 21 58q12 8 34 16l29 4l133 1v65
h-260v41h391v-41h-80z" />
    <glyph glyph-name="Iacute" unicode="&#xcd;" horiz-adv-x="480" 
d="M381 475v-104h-211q-47 0 -47 -54q0 -42 49 -72q45 -27 96 -27q44 0 82 15q12 3 24 12l17 11l19 16l39 -30l-37 -25l-31 -16v-113h-201q-11 0 -19 -3.5t-18 -13.5l-11 -17l-3 -20q0 -66 98 -90q19 -4 29 -4.5t21 -0.5q32 0 67 15l46 21q17 7 26 17l35 -31l-30 -21
l-42 -21q-12 -6 -45 -12q-17 -3 -29.5 -5t-25.5 -2q-43 0 -85 9q-68 15 -101 69q-15 24 -15 58q0 57 49 79q14 5 31 7l174 1v65l-23 -5l-16 -1h-20q-81 0 -135 30q-31 18 -48.5 45.5t-17.5 59.5q0 46 27 68t65 22l168 1v67h-332v41h488v-41h-107z" />
    <glyph glyph-name="Icircumflex" unicode="&#xce;" horiz-adv-x="480" 
d="M381 475v-104h-211q-51 0 -51 -54q0 -21 10 -41q20 -35 81 -53l58 -7q22 0 41.5 3t39.5 11l23 12l16 10l18 17l37 -31l-31 -21l-31 -16v-113h-227q-18 0 -35 -17l-11 -17l-4 -20q0 -47 55 -77q18 -9 55 -18q12 -3 24 -4t28 -1l41 3l34 9q40 11 40 50q0 10 -3 18.5
t-11 18.5l-6 4l-9 5l33 32l14 -17l11 -11q22 -22 22 -46q0 -80 -101 -99q-32 -6 -63 -6q-84 0 -150.5 36t-66.5 105q0 54 50 79q16 5 32 7l199 1v65q-19 -6 -38 -9l-38 -2q-22 0 -36.5 1t-34.5 7q-75 20 -102 70q-15 27 -15 62q0 25 7 39q9 28 50 44q21 7 39 7l168 1v67
h-332v41h488v-41h-107z" />
    <glyph glyph-name="Idieresis" unicode="&#xcf;" horiz-adv-x="527" 
d="M445 475v-114h-224l-8 -3l-2 -5l1 -6l2 -4l12 -15l20 -20l14 -12l15 -8l17 -4l19 -1l17 1l22 3l45 7l25 2q33 3 52 -17q6 -7 9 -21l3 -27q0 -55 -58 -91l-51 -20q-27 -6 -57 -6h-28l-13 2l-37 8l-14 4l-15 6l15 -25l13 -17q11 -15 31 -32q11 -7 27 -10l21 1l79 16l29 4
q13 0 22 -5q19 -3 35 -31l5 -22q0 -28 -14 -53q-30 -56 -120 -69l-34 -2q-50 0 -104 16t-95 47l-36 27l-42 36l31 36l40 -36l34 -23q92 -60 172 -60q28 0 60.5 12.5t47.5 33.5q7 11 10 29q-1 11 -6 17l-9 4l-13 2l-18 -4l-80 -16l-25 -1q-36 0 -79 38.5t-43 84.5v4l1 6v4
l2 5l-32 20l-50 35l-16 12l-16 11l-15 12l29 42l42 -38l34 -26q37 -27 91 -48q45 -16 79 -16h16q16 2 39 10l17 8q48 21 48 58q0 12 -9 18l-11 3l-14 1l-21 -2l-31 -7l-34 -7l-27 -2q-25 0 -76 42q-23 19 -41 41q-12 20 -12 36l3 20q3 9 11 14l16 8l19 3l186 1v75h-393v41
h525v-41h-80z" />
    <glyph glyph-name="Ntilde" unicode="&#xd1;" horiz-adv-x="637" 
d="M357 475v-151l18 17l12 10q31 25 70 25q56 0 98 -38q39 -35 39 -91q0 -57 -52 -122l-22 -27l-30 -33l-43 33q7 2 16 11q42 42 65 94q11 28 11 48q0 28 -10 49q-18 35 -66 35q-41 0 -76 -44q-11 -15 -22 -39q-8 -22 -8 -38v-214h-52v148q-37 -37 -93 -37t-100 39.5
t-44 98.5q0 60 41 97q30 27 70 36l27 3l27 -3q20 -3 27 -8v-42l-24 8l-22 3q-37 0 -64 -26q-7 -7 -20 -30q-7 -21 -7 -36q0 -42 25 -71q11 -14 29 -23q9 -4 16 -6t18 -2q36 0 73 37q21 21 21 40v249h-305v41h635v-41h-278zM403 -199l-14 -7q-46 -17 -82 -17q-29 0 -48 8
q-49 13 -76 61q-11 20 -11 47q0 69 62 100q12 3 21 5t20 2h82v-39h-68q-24 0 -44 -18q-8 -9 -16 -22l-4 -25q0 -18 7 -31q6 -17 34 -33q20 -11 50 -11q46 0 79 29l25 -39z" />
    <glyph glyph-name="Ograve" unicode="&#xd2;" horiz-adv-x="494" 
d="M201 250v-91l-1 -6l-8 -7l-10 -2q-9 0 -26 13q-24 17 -44 40l-38 45q-10 15 -13 27l3 8l8 8l9 5l7 2l60 1v140q0 18 -13 31t-32 13q-9 0 -20 -4l-17 -9l-11 -16l-4 -21l1 -14l5 -15l2 -7l5 -9l-50 1l-4 7l-1 6l-4 14l-1 13q0 44 29.5 68.5t71.5 24.5q66 0 89 -51
q7 -21 7 -37v-135h157v182h-98v41h248v-41h-97v-475h-53v250h-157z" />
    <glyph glyph-name="Oacute" unicode="&#xd3;" 
d="M422 475v-475h-53v127q-3 -5 -8 -8l-17 -11q-55 -35 -112 -35q-74 0 -118 53q-51 59 -51 119l23 -6l29 -2l36 3q22 0 42 18t20 42q0 30 -32 46l-35 10l-42 4l-46 -3l-51 -9q-12 -2 -27 -6t-33 -10q-25 -6 -38 -13l-1 46q24 3 35 8l27 7l71 12q21 3 31 4t33 1q46 0 62 -5
q61 -8 84 -44q13 -21 13 -44q0 -56 -43 -81l-42 -16q-26 -4 -37.5 -4.5t-18.5 -0.5q26 -92 115 -92q21 0 47.5 10t45.5 27l17 15l21 23v290h-369v41h492v-41h-70z" />
    <glyph glyph-name="Ocircumflex" unicode="&#xd4;" horiz-adv-x="527" 
d="M445 475v-90h-224l-7 -3l-2 -3l1 -5l6 -7l9 -10l14 -12l19 -13l14 -9l12 -5l12 -1l18 1l21 3l52 9l27 3l28 -3q39 -11 39 -60q0 -44 -33 -71l-14 -11l-19 -11v-101h-221q-11 0 -19 -4l-17 -9l-11 -14l-4 -17q0 -62 62 -84l25 -9l37 -9q0 12 -2 17l-1 15q0 19 6 33.5
t21 25.5q25 17 65 17q26 0 39 -4q15 -3 32 -13q26 -12 31 -48q0 -48 -44 -69q-39 -17 -93 -17q-107 0 -166 39q-62 42 -62 112q0 47 52 66q15 6 32 6l187 1v47l-6 -2l-14 -1l-16 -1h-11l-36 1q-18 0 -33 5l-34 9l-35 16l-46 23q-20 9 -28 17l-37 26l-32 31l29 38l40 -38
l34 -25q86 -63 172 -63q21 0 36 4q22 3 36 13q48 17 48 59q0 12 -9 18l-11 3l-14 1l-21 -2l-31 -7l-34 -7l-27 -2q-19 0 -54 18l-23 15q-6 4 -16 12q-13 11 -23 23q-13 20 -13 36l3 19q3 7 10 14l16 7l20 3l186 1v53h-393v41h525v-41h-80zM410 -23l-10 4q-7 0 -22 -6
l-31 -19l-14 -10l-19 -16h5l8 -1h5l5 -1h10q18 0 25 2q14 0 19 4q23 8 23 31q0 8 -4 12z" />
    <glyph glyph-name="Odieresis" unicode="&#xd6;" horiz-adv-x="371" 
d="M457 198h-7l-8 -1h-6l-14 -2h-28q-9 0 -12 2l-6 1l-6 2l-7 2l-6 4v-28q0 -50 -39 -85q-25 -22 -47.5 -32.5t-43.5 -10.5l46 -29l53 -23l-31 -39l-78 48l-18 13l-16 13l-9 9l-24 1h-34q-29 0 -46 23q-4 8 -7 27l3 15l9 15l13 9l16 4l15 -1q6 0 15 -6l14 -8l15 -11l10 -11
l13 -16l34 7q19 3 25 8q60 27 60 87q0 13 -2 15l-6 10l-9 6l-12 2l-17 -2l-46 -12l-14 -2l-22 3q-10 3 -22 9.5t-23 16.5l-22 23q-44 46 -44 89q0 23 21 38l14 5l18 2l149 1v86h-268v41h375v-41h-55v-127h-191l-7 -5l-2 -5l1 -10l5 -11l10 -17l18 -22l12 -13l13 -8l13 -4
l17 -1l16 1q16 0 27 4l26 4l17 2q17 0 31 -9l16 -11l10 -4l26 -8l25 -2l28 3q10 2 25 10l4 2l5 5v-50z" />
    <glyph glyph-name="Oslash" unicode="&#xd8;" horiz-adv-x="637" 
d="M357 475v-151l18 17l12 10q31 25 70 25q56 0 98 -38q39 -35 39 -91q0 -57 -52 -122l-22 -27l-30 -33l-43 33q7 2 16 11q42 42 65 94q11 28 11 48q0 28 -10 49q-18 35 -66 35q-41 0 -76 -44q-11 -15 -22 -39q-8 -22 -8 -38v-214h-52v162l-237 -158l-29 39l145 86l-34 9
q-16 3 -24 11q-58 34 -58 100q0 56 42 95q31 28 71 37l28 3l26 -3q11 0 25 -7v-42l-24 8l-22 3q-37 0 -64 -26q-7 -7 -20 -30q-7 -21 -7 -36q0 -55 56 -84q16 -5 32 -7q14 0 19 2l20 9l55 38v266h-305v41h655v-41h-298z" />
    <glyph glyph-name="Ugrave" unicode="&#xd9;" horiz-adv-x="348" 
d="M0 475v41h393v-41h-393zM258 328q-33 0 -63.5 -24.5t-30.5 -64.5q0 -56 63 -130l26 -30l38 -37l-31 -38l-42 44l-30 36q-73 88 -73 155q0 29 13 49l9 14l25 25l-141 1v39h418v-39h-181z" />
    <glyph glyph-name="Uacute" unicode="&#xda;" horiz-adv-x="252" 
d="M0 475v41h254v-41h-254zM258 243l-10 -4l-27 -8l-24 -2l-40 3q-16 0 -42 10l-49 16l-33 18v42q6 -6 24 -15l46 -15l43 -9l40 -3l29 3l31 9l11 5l14 7v-50z" />
    <glyph glyph-name="Ucircumflex" unicode="&#xdb;" horiz-adv-x="287" 
d="M206 156q-21 -7 -42 -7q-49 0 -75 30q-7 7 -20 33q-6 18 -6 41q0 46 27.5 75.5t73.5 29.5q18 0 25.5 -1t17.5 -7q26 -9 42 -38t16 -58t-15.5 -58.5t-43.5 -39.5z" />
    <glyph glyph-name="Udieresis" unicode="&#xdc;" horiz-adv-x="371" 
d="M291 264l-21 8l-33 17l-14 9l-73 -50l-20 -15l-29 -19l-33 -20l-31 40l96 57l47 32l-21 14l-13 13q-35 35 -35 77q0 41 30.5 66.5t71.5 25.5q39 0 73 -25q23 -18 31 -48l1 -19q0 -13 -2 -18l-5 -17q-3 -10 -10 -18l-12 -18l-12 -14l-17 -15l9 -6l9 -5l8 -5l9 -4l31 -17
q9 -2 22 -11l113 -55v-48zM262 446q-3 9 -13 19l-19 12l-21 4q-19 0 -36 -14l-11 -17l-4 -23q0 -28 17 -45q20 -26 42 -29l14 10l10 9q25 22 25 51q0 14 -4 23z" />
    <glyph glyph-name="Yacute" unicode="&#xdd;" horiz-adv-x="625" 
d="M352 475v-149l10 9l21 15q31 22 60 22q38 0 72.5 -20t50.5 -56q10 -27 10 -49q0 -61 -49 -129l-18 -20l-34 -35l-43 35l26 19l19 18q46 52 46 116q0 31 -18 55q-22 25 -60 25q-18 0 -33 -11q-21 -13 -34 -34l-12 -19l-14 -26v-241h-53v199l-213 -166l-37 35l154 104
l-8 -2h-7l-22 1l-19 5l-25 12l-22 18l-13 17l-9 20l-5 23l-1 26v183h-72v41h631v-41h-279zM299 475h-176v-190q0 -45 23 -68q5 -5 21 -13l32 -4q42 0 71 28q23 23 29 50v197z" />
    <glyph glyph-name="Thorn" unicode="&#xde;" horiz-adv-x="264" 
d="M193 447h-43l41 143h61zM94 449h-43l43 143h58z" />
    <glyph glyph-name="germandbls" unicode="&#xdf;" horiz-adv-x="275" 
d="M209 453h-59l59 143h43zM111 455h-60l58 143h43z" />
    <glyph glyph-name="agrave" unicode="&#xe0;" horiz-adv-x="445" 
d="M319 136v-58l-5 -10l-8 -2q-1 0 -3.5 1t-9.5 7l-22 24l-20 26l-7 15l1 8l4 6l6 3l11 3l165 1l1 59h-203q-24 0 -39 -8q-11 -3 -32 -21q-29 -24 -29 -68q0 -66 116 -96l33 -4l25 -4l58 -7l-17 -36l-22 -1q-8 0 -29 3t-52 9t-42 11q-75 21 -108 70q-17 26 -17 61
q0 24 16 50q8 13 19 24l24 24l-21 22l-13 17q-19 25 -27 43l-8 37l3 18l11 14l15 8l18 3l211 1v86h-322v41h445v-41h-70v-129h-238q-9 0 -14 -5l-4 -10l4 -16q7 -14 14 -21l8 -13l12 -14l2 -4l5 -4l289 -1l2 -258h-23l-1 136h-112z" />
    <glyph glyph-name="aacute" unicode="&#xe1;" horiz-adv-x="672" 
d="M598 475v-475h-53v113q-67 -70 -157 -70q-92 0 -146 79h5l4 -1h10q50 0 68 31q7 14 7 29q0 16 -3.5 25.5t-14.5 14.5l-4 1l-4 2h-5l-6 2l-119 1q-6 0 -20 -9l-20 -21q-9 -14 -15 -31l-4 -36q0 -43 50 -81l41 -28l59 -29l36 -10l-37 -35q-15 -6 -103 48q-46 28 -73 64
q-13 17 -19.5 34.5t-6.5 34.5l3 38q0 17 11 28l13 15l26 26l-17 19l-11 16q-29 43 -29 75l3 18l11 14l15 8l18 3l211 1v86h-322v41h670v-41h-72zM545 475h-170v-129h-238q-9 0 -15 -6l-4 -12l3 -17q3 -10 11 -20l14 -17l12 -9l166 1l19 -9q9 -3 13 -8q33 -24 33 -62
q0 -41 -23 -64l-10 -10l-14 -10l16 -8l16 -6l15 -5l11 -1q13 0 26.5 3t28.5 10q33 15 52 38l17 21l21 30v290z" />
    <glyph glyph-name="acircumflex" unicode="&#xe2;" horiz-adv-x="480" 
d="M418 475v-129h-281q-15 0 -19 -17q0 -13 5 -21l15 -25l20 -22l16 -10l13 4l27 7l32 6l27 2q16 0 32.5 -1t36.5 -5q65 -12 89 -48q12 -18 12 -47q0 -34 -35 -47l-23 -5l-45 -7q-21 0 -28 -2q-44 0 -44 -41q0 -27 27 -38l28 -9l31 -3l30 3q10 0 32 11l6 2l8 5l21 -42
l-45 -14q-15 -3 -23 -4t-27 -1q-62 0 -95 21q-44 21 -44 73q0 46 29 65q13 10 31.5 15.5t44.5 5.5h24l17 1h14l11 3l6 6l2 12q0 15 -10 24.5t-32 17.5l-35 6l-46 2q-21 0 -31 -1t-31 -7q-54 -16 -81 -60q-11 -19 -11 -45t12 -59q6 -23 28 -48q33 -38 53 -56q20 -16 40 -19
l-35 -39q-38 6 -103 92q-18 26 -35 63q-11 30 -11 66q0 39 17 62l17 23l27 27l-19 21l-13 17l-25 43q-4 11 -8 36l3 18l11 14l15 8l18 3l254 1v86h-365v41h488v-41h-70z" />
    <glyph glyph-name="atilde" unicode="&#xe3;" horiz-adv-x="686" 
d="M615 475v-475h-52v100h-163v-55l-1 -11l-2 -6l-8 -6l-10 -2q-18 0 -57 40q-35 33 -41 58l1 8l5 6l8 3l12 3l39 1v84h-143q-47 0 -68 -58l-4 -35q0 -32 29 -65q21 -24 57 -44l55 -29l35 -10l-37 -35q-25 0 -95.5 48.5t-88.5 98.5q-6 17 -6 34l3 32q4 25 24 46l22 23
l-19 21l-13 17l-25 42q-4 11 -8 36l3 18l11 14l15 8l18 3l211 1v86h-322v41h688v-41h-73zM563 475h-188v-129h-238q-13 0 -17 -17q0 -21 17 -41l16 -18l13 -5l234 1v-127h163v336z" />
    <glyph glyph-name="adieresis" unicode="&#xe4;" horiz-adv-x="709" 
d="M434 475v-118l37 16q21 6 44 6q60 0 107.5 -36.5t47.5 -95.5q0 -38 -28 -95l-23 -41l-22 -32l-29 -41l-43 30l5 4l11 13l30 47q44 70 44 119q0 36 -24 60t-60 24q-33 0 -46 -5q-18 -3 -33 -12l-14 -11l-4 -9v-298h-51v324h-125q-59 0 -87 -52q-5 -16 -7 -33
q0 -60 51 -135l21 -31l30 -41l-43 -26l-32 44l-22 35q-13 21 -22 39.5t-19 44.5q-13 39 -13 70q0 34 22 60l18 17l7 7l-141 1v43h362v108h-383v41h713v-41h-279z" />
    <glyph glyph-name="aring" unicode="&#xe5;" horiz-adv-x="438" 
d="M371 114q-44 -47 -115 -47q-66 0 -124 45.5t-58 115.5q0 51 28 93t77 63q13 5 31 9t32 4q69 0 121.5 -48.5t52.5 -120.5q0 -66 -45 -114zM341 323q-28 28 -73 28q-57 0 -100 -46t-43 -109q0 -18 9 -36q6 -13 23 -28l34 -20q18 -6 39 -6q40 0 75 28q33 24 51 64
q8 18 10.5 31t2.5 26q0 40 -28 68z" />
    <glyph glyph-name="ae" unicode="&#xe6;" 
d="M383 475v-127h-195q-67 0 -67 -81q0 -78 88 -114q27 -8 55 -8l10 1l15 2l18 3l-1 9q0 9 5 18q15 55 54 55q32 0 42 -29l3 -18q0 -25 -14 -46q-7 -12 -19 -19l-22 -5l2 -13l7 -35l7 -22l12 -29l17 -27l10 -14l10 -11h-59l-18 41l-12 29q-1 4 -6.5 19.5t-6.5 19.5l-4 36
l-207 -151l-31 43l184 109q-27 0 -75 9q-10 0 -21 7q-96 36 -96 140q0 50 27.5 84.5t72.5 34.5l162 1v88h-330v41h490v-41h-107z" />
    <glyph glyph-name="ccedilla" unicode="&#xe7;" horiz-adv-x="445" 
d="M377 475v-475h-53v217l-250 -217l-39 35l168 133q-57 0 -89 38q-16 18 -27 45q-9 26 -9 55v169h-78v41h445v-41h-68zM322 475h-193v-176q0 -57 56 -88l30 -5q18 0 33 8q28 14 39 25l15 13l20 20v203z" />
    <glyph glyph-name="egrave" unicode="&#xe8;" horiz-adv-x="264" 
d="M248 475v41h20v-41h-20zM341 158l-36 -25q-58 -40 -131 -40q-47 0 -88 30.5t-41 76.5q0 33 25 65l10 10l16 13q-16 7 -30 23q-31 32 -42 55l-8 20q-4 10 -6 18.5t-2 18.5q0 45 28 73t73 28q62 0 85 -48q5 -13 7 -30v-30h-45v31q0 40 -45 40q-21 0 -37 -19l-10 -20l-3 -23
q0 -23 5 -38q2 -7 5.5 -14t11.5 -18q15 -21 28 -34q6 -5 13.5 -7.5l10.5 -3.5l34 10l39 4l18 -1l20 -2l22 -38l-67 -3q-29 0 -39 -5q-62 -14 -62 -73q0 -43 53 -64l31 -4q60 0 123 47l22 20l26 28v-53q0 -8 -14 -18z" />
    <glyph glyph-name="eacute" unicode="&#xe9;" horiz-adv-x="504" 
d="M434 477v-477h-53v223l-186 -100l30 -51l1 -9l1 -5q0 -12 -6 -15l-8 -2l-10 -1l-14 1q-11 0 -18 4l-23 6l-27 12l-18 9l-13 11l-7 10l-2 11q0 17 21 34l4 3l7 4l242 103l-18 20l-14 16q-17 20 -36 34q-17 16 -29 21l-15 6l-16 4l-18 2l-16 1l-24 -1l-22 -3l-9 -2l-11 -3
l4 -72l-3 -11l-3 -6l-7 -6l-8 -2l-10 2l-13 8l-15 13l-17 18l-28 36l-6 10l-2 10q0 12 14 23l43 17l59 10l64 4q23 0 36.5 -1t27 -7t27.5 -20q24 -19 43 -43l20 -24l28 -32v205h-381v41h506v-39h-72z" />
    <glyph glyph-name="ecircumflex" unicode="&#xea;" horiz-adv-x="480" 
d="M381 475v-104h-211q-47 0 -47 -54q0 -42 49 -72q45 -27 96 -27q44 0 82 15q12 3 24 12l17 11l19 16l39 -30l-37 -25l-31 -16v-113h-201q-11 0 -19 -3.5t-18 -13.5l-11 -17l-3 -20q0 -66 98 -90q19 -4 29 -4.5t21 -0.5q32 0 67 15l46 21q17 7 26 17l35 -31l-30 -21
l-42 -21q-12 -6 -45 -12q-17 -3 -29.5 -5t-25.5 -2q-43 0 -85 9q-68 15 -101 69q-15 24 -15 58q0 57 49 79q14 5 31 7l174 1v65l-23 -5l-16 -1h-20q-81 0 -135 30q-31 18 -48.5 45.5t-17.5 59.5q0 46 27 68t65 22l168 1v67h-332v41h488v-41h-107z" />
    <glyph glyph-name="edieresis" unicode="&#xeb;" horiz-adv-x="480" 
d="M381 475v-104h-211q-51 0 -51 -54q0 -21 10 -41q20 -35 81 -53l58 -7q22 0 41.5 3t39.5 11l23 12l16 10l18 17l37 -31l-31 -21l-31 -16v-113h-227q-18 0 -35 -17l-11 -17l-4 -20q0 -47 55 -77q18 -9 55 -18q12 -3 24 -4t28 -1l41 3l34 9q40 11 40 50q0 10 -3 18.5
t-11 18.5l-6 4l-9 5l33 32l14 -17l11 -11q22 -22 22 -46q0 -80 -101 -99q-32 -6 -63 -6q-84 0 -150.5 36t-66.5 105q0 54 50 79q16 5 32 7l199 1v65q-19 -6 -38 -9l-38 -2q-22 0 -36.5 1t-34.5 7q-75 20 -102 70q-15 27 -15 62q0 25 7 39q9 28 50 44q21 7 39 7l168 1v67
h-332v41h488v-41h-107z" />
    <glyph glyph-name="igrave" unicode="&#xec;" horiz-adv-x="527" 
d="M445 475v-114h-224l-8 -3l-2 -5l1 -6l2 -4l12 -15l20 -20l14 -12l15 -8l17 -4l19 -1l17 1l22 3l45 7l25 2q33 3 52 -17q6 -7 9 -21l3 -27q0 -55 -58 -91l-51 -20q-27 -6 -57 -6h-28l-13 2l-37 8l-14 4l-15 6l15 -25l13 -17q11 -15 31 -32q11 -7 27 -10l21 1l79 16l29 4
q13 0 22 -5q19 -3 35 -31l5 -22q0 -28 -14 -53q-30 -56 -120 -69l-34 -2q-50 0 -104 16t-95 47l-36 27l-42 36l31 36l40 -36l34 -23q92 -60 172 -60q28 0 60.5 12.5t47.5 33.5q7 11 10 29q-1 11 -6 17l-9 4l-13 2l-18 -4l-80 -16l-25 -1q-36 0 -79 38.5t-43 84.5v4l1 6v4
l2 5l-32 20l-50 35l-16 12l-16 11l-15 12l29 42l42 -38l34 -26q37 -27 91 -48q45 -16 79 -16h16q16 2 39 10l17 8q48 21 48 58q0 12 -9 18l-11 3l-14 1l-21 -2l-31 -7l-34 -7l-27 -2q-25 0 -76 42q-23 19 -41 41q-12 20 -12 36l3 20q3 9 11 14l16 8l19 3l186 1v75h-393v41
h525v-41h-80z" />
    <glyph glyph-name="iacute" unicode="&#xed;" horiz-adv-x="385" 
d="M311 475v-104h-163l-16 -3l-11 -1q-27 -6 -27 -36q0 -27 20 -46l13 -12l10 -4l45 14l4 -1l5 1h8l7 1h15l4 -1h5l9 -1h7l24 -42h-9l-10 2h-6l-6 1h-28q-10 0 -21 -4l-28 -9q-13 -7 -23 -23t-10 -36q0 -28 10 -45q5 -14 24 -26l28 -11l35 -4l17 1l11 3l-2 4v19q0 16 2 21
l7 17q7 10 17.5 15.5t24.5 5.5q33 0 42 -31l3 -20l-3 -20l-9 -17q-7 -8 -14 -12l-17 -4l52 -90l-44 -24l-45 102l-4 -3l-9 -1l-14 -2h-15q-60 0 -96 21q-26 15 -40 40t-14 63q0 14 2 18l7 20l16 24l6 10l-19 13l-13 10q-32 32 -32 63q0 41 21 58q12 8 34 16l29 4l133 1v65
h-260v41h391v-41h-80z" />
    <glyph glyph-name="icircumflex" unicode="&#xee;" 
d="M422 475v-475h-53v127q-3 -5 -8 -8l-17 -11q-55 -35 -112 -35q-74 0 -118 53q-51 59 -51 119l23 -6l29 -2l36 3q22 0 42 18t20 42q0 30 -32 46l-35 10l-42 4l-46 -3l-51 -9q-12 -2 -27 -6t-33 -10q-25 -6 -38 -13l-1 46q24 3 35 8l27 7l71 12q21 3 31 4t33 1q46 0 62 -5
q61 -8 84 -44q13 -21 13 -44q0 -56 -43 -81l-42 -16q-26 -4 -37.5 -4.5t-18.5 -0.5q26 -92 115 -92q21 0 47.5 10t45.5 27l17 15l21 23v290h-369v41h492v-41h-70z" />
    <glyph glyph-name="idieresis" unicode="&#xef;" horiz-adv-x="527" 
d="M445 475v-90h-224l-7 -3l-2 -3l1 -5l6 -7l9 -10l14 -12l19 -13l14 -9l12 -5l12 -1l18 1l21 3l52 9l27 3l28 -3q39 -11 39 -60q0 -44 -33 -71l-14 -11l-19 -11v-101h-221q-11 0 -19 -4l-17 -9l-11 -14l-4 -17q0 -62 62 -84l25 -9l37 -9q0 12 -2 17l-1 15q0 19 6 33.5
t21 25.5q25 17 65 17q26 0 39 -4q15 -3 32 -13q26 -12 31 -48q0 -48 -44 -69q-39 -17 -93 -17q-107 0 -166 39q-62 42 -62 112q0 47 52 66q15 6 32 6l187 1v47l-6 -2l-14 -1l-16 -1h-11l-36 1q-18 0 -33 5l-34 9l-35 16l-46 23q-20 9 -28 17l-37 26l-32 31l29 38l40 -38
l34 -25q86 -63 172 -63q21 0 36 4q22 3 36 13q48 17 48 59q0 12 -9 18l-11 3l-14 1l-21 -2l-31 -7l-34 -7l-27 -2q-19 0 -54 18l-23 15q-6 4 -16 12q-13 11 -23 23q-13 20 -13 36l3 19q3 7 10 14l16 7l20 3l186 1v53h-393v41h525v-41h-80zM410 -23l-10 4q-7 0 -22 -6
l-31 -19l-14 -10l-19 -16h5l8 -1h5l5 -1h10q18 0 25 2q14 0 19 4q23 8 23 31q0 8 -4 12z" />
    <glyph glyph-name="eth" unicode="&#xf0;" horiz-adv-x="480" 
d="M381 475v-104h-211q-51 0 -51 -54q0 -21 10 -41q20 -35 81 -53l58 -7q57 0 87 69l8 28l8 41l38 -12v-12q0 -7 -2 -17l-1 -26q0 -16 -4 -24l-5 -20l-3 -3l-3 -6l-4 -9l-3 -12l-2 -5l-1 -8v-112h-227q-18 0 -35 -17l-11 -17l-4 -20q0 -47 55 -77q18 -9 55 -18q12 -3 24 -4
t28 -1l41 3l34 9q40 11 40 50q0 10 -3 18.5t-11 18.5l-6 4l-9 5l33 32l14 -17l11 -11q22 -22 22 -46q0 -80 -101 -99q-32 -6 -63 -6q-84 0 -150.5 36t-66.5 105q0 54 50 79q16 5 32 7l199 1v65q-19 -6 -38 -9l-38 -2q-22 0 -36.5 1t-34.5 7q-75 20 -102 70q-15 27 -15 62
q0 25 7 39q9 28 50 44q21 7 39 7l168 1v67h-332v41h488v-41h-107z" />
    <glyph glyph-name="ntilde" unicode="&#xf1;" horiz-adv-x="240" 
d="M179 36q-28 -25 -66 -25q-36 0 -64.5 22.5t-28.5 67.5q0 22 7 37q10 30 51 47q15 6 35 6q41 0 67.5 -24.5t26.5 -65.5q0 -38 -28 -65zM134 50q9 3 16 11l10 17l4 21q0 13 -4 21l-9 17q-6 8 -17 12l-21 4q-22 0 -38 -17l-10 -17l-3 -20l3 -21l10 -17l15 -11l23 -4z" />
    <glyph glyph-name="oacute" unicode="&#xf3;" horiz-adv-x="672" 
d="M600 477v-477h-53v197l-143 -131l-39 32l149 121l-3 1l-3 2l-4 1l-3 2q-15 8 -33 12l-36 4l-28 -2l-32 -6l-25 -7l-11 -4l-25 46l41 7l44 7l32 2h12l5 -1h6q7 0 9 -2l7 -1l-14 25l-10 15q-38 38 -103 38l-22 -2q-14 0 -26 -4q-5 -1 -6 -2l-7 -1q0 -45 -24 -80
q-9 -13 -26.5 -23t-36.5 -10l-11 1l-13 2l62 -94l27 -35l48 -55l21 -21l-41 -34q-18 6 -48 51l-122 177l-28 46l-18 31l-18 32l43 28l29 -56q18 -35 59 -35l22 3q9 3 13 10l7 15l2 21l-1 15v137h-225v41h672v-39h-72zM547 475h-270v-84l15 1l10 3l27 4l19 2q85 0 138 -69
l16 -29l18 -40l27 -17v229z" />
    <glyph glyph-name="ocircumflex" unicode="&#xf4;" horiz-adv-x="637" 
d="M357 475v-127l24 17l32 15l36 9l36 4q69 0 93 -47q4 -8 6 -17.5t2 -22.5q0 -40 -26 -75l-15 -15l-37 26l5 3l4 5q10 13 16 27t6 29q0 11 -5 20q-3 16 -31 28l-21 4q-14 0 -31.5 -7t-46.5 -25l-21 -13l-26 -19v-101l25 12l14 6l37 13l30 5q56 0 84 -28q31 -25 31 -73
q0 -25 -12.5 -52.5t-35.5 -44.5l-20 -15l-28 -16l-27 35l21 12l15 11q36 26 36 70q0 19 -5 29q-5 20 -34 27l-27 4q-10 0 -31 -6l-37 -18l-16 -10l-20 -14v-140h-52v102q-5 -7 -14 -12l-31 -16l-43 -18q-21 -6 -37 -6q-14 0 -22 1t-23 7q-40 14 -60 57q-9 20 -9 42
q0 17 12 41l9 13l12 12l12 8l-19 14l-13 18l-8 19l-2 20q0 21 10 41q16 37 62 56q10 3 22.5 5.5t22.5 2.5l23 -2l27 -6l6 -2l8 -3l20 -44l-16 3l-11 3l-30 6l-20 2q-42 0 -67 -43l-5 -24q0 -26 35 -44l15 3l16 1l18 -1l52 -6l16 -1l20 -46l-11 2l-27 6l-31 5l-21 2
q-21 0 -32 -5q-31 -5 -45 -32q-5 -11 -7 -28q0 -27 17 -43q5 -7 21 -13l31 -4q38 0 79 29l28 20l10 13v320h-305v41h633v-41h-276z" />
    <glyph glyph-name="otilde" unicode="&#xf5;" horiz-adv-x="6" 
d="M-95 516l-172 226l47 26l160 -252h-35zM-181 516l-197 132l37 41l185 -173h-25zM-26 642v56h61v-56h-61zM29 751l-7 3l-20 4l-19 2q-29 0 -47 -20.5t-18 -50.5q0 -22 8.5 -47t23.5 -45l14 -19l19 -23l-38 1q-8 6 -14 14l-23 36l-13 27l-13 28q-9 27 -9 50q0 42 32.5 66
t76.5 24l28 -3l27 -9v-40z" />
    <glyph glyph-name="odieresis" unicode="&#xf6;" 
d="M178 -23l1 -4l-2 -4l-5 -5q-12 0 -17 2l-34 11l-14 5q-12 5 -15 7l-18 12v5l3 7l6 7l33 16l-35 77l-10 11l-13 4l-12 -3q-2 -1 -4.5 -2t-6.5 -5l-8 -10l-2 -12l1 -6v-4l6 -9l3 -4l4 -3l3 -3l5 -4l-27 -12l-4 2l-2 3l-6 7l-4 7l-4 12l-1 12q0 10 4.5 20t14.5 21
q18 15 46 18l13 -2l13 -6l11 -9l9 -13l34 -73l116 61q-27 0 -75 9q-10 0 -21 7q-96 36 -96 140q0 50 27.5 84.5t72.5 34.5l162 1v88h-330v41h490v-41h-107v-127h-195q-67 0 -67 -81q0 -78 88 -114q27 -8 55 -8l10 1l15 2l18 3l-1 9q0 9 5 18q15 55 54 55q32 0 42 -29l3 -18
q0 -25 -14 -46q-7 -12 -19 -19l-22 -5l2 -13l7 -35l7 -22l12 -29l17 -27l10 -14l10 -11h-59l-18 41l-12 29q-1 4 -6.5 19.5t-6.5 19.5l-4 36l-159 -84z" />
    <glyph glyph-name="divide" unicode="&#xf7;" horiz-adv-x="371" 
d="M457 198h-7l-8 -1h-6l-14 -2h-28q-9 0 -12 2l-6 1l-6 2l-7 2l-6 4v-28q0 -50 -39 -85q-25 -22 -47.5 -32.5t-43.5 -10.5l46 -29l53 -23l-31 -39l-78 48l-18 13l-16 13l-9 9l-24 1h-34q-29 0 -46 23q-4 8 -7 27l3 15l9 15l13 9l16 4l15 -1q6 0 15 -6l14 -8l15 -11l10 -11
l13 -16l34 7q19 3 25 8q60 27 60 87q0 13 -2 15l-6 10l-9 6l-12 2l-17 -2l-46 -12l-14 -2l-22 3q-10 3 -22 9.5t-23 16.5l-22 23q-44 46 -44 89q0 23 21 38l14 5l18 2l149 1v86h-268v41h375v-41h-55v-127h-191l-7 -5l-2 -5l1 -10l5 -11l10 -17l18 -22l12 -13l13 -8l13 -4
l17 -1l16 1q16 0 27 4l26 4l17 2q17 0 31 -9l16 -11l10 -4l26 -8l25 -2l28 3q10 2 25 10l4 2l5 5v-50z" />
    <glyph glyph-name="oslash" unicode="&#xf8;" horiz-adv-x="203" 
d="M244 -182q-101 0 -129 68q-11 25 -11 53v209q0 33 -18 66.5t-53 54.5l10 8l9 6l18 15l12 15l8 15l7 20l5 20l2 16v210q0 20 9 46q18 48 58 67q23 10 43 10l13 -2l17 -3l82 1v-31h-80q-15 0 -21.5 -1.5t-17.5 -6.5q-37 -15 -54 -48q-7 -21 -7 -35l-2 -223q0 -10 -4 -23
q0 -6 -1 -10t-7 -15l-11 -18l-53 -32l10 -8l8 -4q12 -5 18 -14l13 -11l4 -7l6 -8l9 -25l7 -27l3 -21v-204q0 -42 27 -63q18 -14 51 -20l22 -1h80v-39h-82z" />
    <glyph glyph-name="ugrave" unicode="&#xf9;" horiz-adv-x="686" 
d="M563 475h-188v-129h-238q-13 0 -17 -17q0 -21 17 -41l16 -18l13 -5l234 1v-127h163v336zM124 232l-18 19l-12 17q-8 11 -12.5 19t-10.5 21q-7 21 -7 37l3 18l11 14l15 8l18 3l211 1v86h-322v41h688v-41h-73v-475h-52v100h-163v-55l-1 -11l-2 -6l-8 -6l-10 -2
q-18 0 -57 40q-35 33 -41 58l1 8l5 6l8 3l12 3l39 1v84h-174q-16 0 -29 4h-5l-6 2z" />
    <glyph glyph-name="c276" unicode="&#x2010;" horiz-adv-x="168" 
d="M51 0v66h70v-66h-70z" />
  </font>
</defs>
</svg>
